<?xml version="1.0" standalone="no"?>
<!DOCTYPE svg PUBLIC "-//W3C//DTD SVG 1.1//EN" "http://www.w3.org/Graphics/SVG/1.1/DTD/svg11.dtd" >
<svg xmlns="http://www.w3.org/2000/svg">
<metadata>Generated by IcoMoon</metadata>
<defs>
<font id="icomoon" horiz-adv-x="1024">
<font-face units-per-em="1024" ascent="960" descent="-64" />
<missing-glyph horiz-adv-x="1024" />
<glyph unicode="&#x20;" horiz-adv-x="512" d="" />
<glyph unicode="&#xe603;" glyph-name="weixin" horiz-adv-x="1280" d="M890 645q10 0 19-1-25 135-153 225.5t-299 90.5q-124 0-229.5-50t-166.5-135.5-61-187.5q0-89 48-166.5t132-129.5l4-2-44-135 165 82q5-2 8-2 70-19 144-19 14 0 31 1-14 43-14 88 0 93 55.5 171.5t151.5 124 209 45.5zM616.5 776q26.5 0 45.5-17.5t19-42.5-19-43-45.5-18-45.5 18-19 43 19 42.5 45.5 17.5zM298.5 655q-26.5 0-45.5 18t-19 43 19 42.5 45.5 17.5 45-17.5 18.5-42.5-18.5-43-45-18zM507 302.5q0-85.5 52-158t141-115 194-42.5q63 0 122 17l6 1 140-69-37 114q2 1 3 2 71 44 111.5 109.5t40.5 140.5q0 86-51.5 158.5t-140.5 114.5-194 42-194-42-141-114.5-52-158zM974 411q0 21 16 36t38.5 15 38-15 15.5-36-15.5-36-38-15-38.5 15-16 36zM705 411q0 21 16 36t38.5 15 38-15 15.5-36-15.5-36-38-15-38.5 15-16 36z" />
<glyph unicode="&#xe610;" glyph-name="uniE610" d="M573 448l436 438q13 13 13 31t-13 30.5-31 12.5-30-13l-436-437-436 437q-12 13-30 13t-31-12.5-13-30.5 13-31l436-438-436-438q-13-13-13-31t13-30.5 31-12.5 30 13l436 437 436-437q12-13 30-13t31 12.5 13 30.5-13 31z" />
<glyph unicode="&#xe620;" glyph-name="switch" horiz-adv-x="1053" d="M526.5 400q-12.5 0-21.5 9t-9 21v500q0 12 9 21t21.5 9 21.5-9 9-21v-500q0-12-9-21t-21.5-9zM775 926q-25-4-32.5-17.5t-2.5-24.5l5-11v-1q112-59 179.5-169t67.5-241q0-94-37-180.5t-99.5-148.5-148.5-99-180.5-37-181 37-148.5 99-99 148.5-37 180.5q0 129 65.5 237.5t174.5 169.5v0q6 15 3.5 25t-6 15.5-11 8.5-10.5 3.5-6 0.5q-123-69-197-191.5t-74-268.5q0-107 41.5-204t112-167.5 168-112.5 204.5-42 204.5 42 168 112.5 112.5 167.5 42 204q0 148-76 272t-202 192z" />
<glyph unicode="&#xe621;" glyph-name="email" horiz-adv-x="1199" d="M599 361q-12 0-20 8l-570 539q-14 14-6.5 33t27.5 19h1139q20 0 27.5-19t-7.5-33l-569-539q-9-8-21-8zM105 900l494-468 495 468h-989zM599-64h-449q-67 0-107 40-19 20-30 48.5t-12 41.5-1 21v606q0 12 8.5 21t21 9 21.5-9 9-21v-606q0-8 1-16t6-22.5 14-25.5 27-19 42-8h449q13 0 21.5-9t8.5-21.5-8.5-21-21.5-8.5zM1049-64h-450q-12 0-21 8.5t-9 21 9 21.5 21 9h450q41 0 64 22 26 27 26 68v607q0 12 8.5 21t21 9 21.5-9 9-21v-606q0-8-1.5-21t-12-41.5-30.5-48.5q-40-40-106-40z" />
<glyph unicode="&#xe623;" glyph-name="talking" horiz-adv-x="1195" d="M1150 919q-40 41-108 41h-890q-68 0-108-41-20-20-31-49t-12-41.5-1-20.5v-512q0-9 1-21.5t12-42 31-48.5q40-41 108-41h86v-178q0-18 16-26 6-3 13-3 10 0 18 6l261 201h496q68 0 108 41 20 19 31 48.5t12 42 1 20.5v512q0 9-1 21.5t-12 41.5-31 49zM1136 502v-207q0-5-1-13t-7.5-27-18.5-31q-24-23-67-23h-510q-8-1-13-5l-69-53-154-119v148q0 11-7 19t-18 10q-1 0-2 0.5t-1.5 0.5-2-0.5l-1.5-0.5h-112q-25 0-44 8.5t-28 19.5-14.5 26-6.5 24-1 16v513q0 5 1 13t7.5 26.5 18.5 30.5q24 24 67 24h890q25 0 44-8.5t28-20 14.5-26.5 6.5-23.5 1-15.5v-306zM991 689h-773q-12 0-20.5-8.5t-8.5-20.5 8.5-20.5 20.5-8.5h773q12 0 20.5 8.5t8.5 20.5-8.5 20.5-20.5 8.5zM762 504h-544q-12 0-20.5-8.5t-8.5-20.5 8.5-20.5 20.5-8.5h544q12 0 20.5 8.5t8.5 20.5-8.5 20.5-20.5 8.5z" />
<glyph unicode="&#xe625;" glyph-name="qq" horiz-adv-x="1025" d="M512 960q-104 0-199-40.5t-163.5-109-109-163.5-40.5-199 40.5-199 109-163.5 163.5-109 199-40.5 199 40.5 163.5 109 109 163.5 40.5 199-40.5 199-109 163.5-163.5 109-199 40.5zM801 291q-13-12-40 33-12 16-14 16 0-2-2.5-9t-3.5-9.5-3-8.5-3.5-9-4-8.5-5-9-6-8.5-7.5-10l-8-10q-1-1 2.5-3t9-5 11.5-8 11.5-11.5 8.5-14.5q4-9 5-12t2-12.5-1-14-8.5-12.5-17.5-12.5-29.5-9-43.5-7.5q-32-4-62.5 6t-48 20.5l-17.5 10.5h-33l-4-3.5t-13-9-22.5-11-38-9.5-54.5-4q-56 0-78.5 27.5t-8.5 52.5q7 12 18.5 21.5t17.5 14 5 5.5q-27 32-41 68-3 8-4 15-1 4-6-5-20-37-28-43-9-7-17-1-17 13-18 44.5t12 64.5q7 19 21 41.5t24.5 37 11.5 18.5q0 15-0.5 27t-1 14 1.5 9q4 12 10.5 15.5t6.5 8.5q0 102 66 174t159 72 159-72 66-174q0-2 3.5-3t8.5-5.5 8-15.5 1-50q0-5 9-14.5t22-31 21-51.5q10-33 8-57t-6.5-35.5-10.5-16.5z" />
<glyph unicode="&#xe626;" glyph-name="weibo" d="M512 960q-104 0-198.5-40.5t-163-109-109-163-40.5-198.5 40.5-198.5 109-163 163-109 198.5-40.5 198.5 40.5 163 109 109 163 40.5 198.5-40.5 198.5-109 163-163 109-198.5 40.5zM461 183q-131 0-224 60t-93 145q0 40 34.5 92.5t82 95.5 97.5 73 80 30q14 0 29-5.5t28-17.5 13-32.5-16-50.5q-1-1 4.5 0.5t16 5 24 7.5 29.5 7 31.5 4 31.5-2 28-10q20-12 24.5-28.5t-2-29.5-14.5-25-8-13 12.5-3.5 30-8 35-14.5 29.5-29 12-46q0-85-92-145t-223-60zM710 601.5q-9 10.5-22.5 15t-23.5 3.5l-9-1q-17 0-20 17v0q1 7 6.5 13t13.5 7q5 1 13 2t29-4 37.5-19.5 22-36.5 2.5-37l-3-15q-1-8-8-14t-16-6h-2q-8 0-12.5 6t-1.5 14l2.5 8.5t1.5 22.5-10 24.5zM850 530q-1-11-10-19.5t-20-9.5l3-1h-7l4 1q-12 1-18.5 9.5t-4.5 20.5q2 7 3.5 19t-4 44.5-23.5 58.5-50 38-55 11h-23q-12 0-20.5 7.5t-9.5 18.5l-1-3v6l1-3q1 12 9.5 20t20.5 8q4 0 10.5 0.5t25.5-1.5 37.5-7 42.5-17 42.5-30 30.5-42 15-46 4-41-1-30zM823 500l-3 1-4-1h7zM614 725q0 1 1 3l-1 3v-6zM635 633v0zM432 509q-84-12-137.5-59t-46-101.5 72-84.5 148.5-18 138 58.5 46 101-72.5 85-148.5 18.5zM448.5 265.5q-49.5-9.5-90.5 13t-49 64 21.5 78 79 46 90.5-13 49-64-21.5-78-79-46zM404 320q-6-4-13-4-11 0-18 9.5t-7 22.5q0 18 12 28 6 5 13 5 10 0 17-9.5t7-23.5q0-18-11-28zM430 387.5q0 8.5 6 14.5t14.5 6 14.5-6 6-14.5-6-14.5-14.5-6-14.5 6-6 14.5z" />
<glyph unicode="&#xe900;" glyph-name="play" d="M882.207 475.839c27.218-18.15 27.121-47.355 0-65.089l-698.857-456.965c-27.218-17.795-49.281-5.662-49.281 26.658v935.443c0 32.52 22.16 44.104 49.281 26.018l698.857-466.064z" />
<glyph unicode="&#xe902;" glyph-name="href" d="M457.508 770.635v-92.184h-136.095c-123.093 0-222.789-99.739-222.789-222.772 0-123.060 99.746-222.772 222.789-222.772h136.095v-92.184h-137.56c-173.94 0-314.946 140.971-314.946 314.954 0 173.944 140.962 314.954 314.946 314.954h137.56zM551.13 770.635h137.56c173.94 0 314.946-140.971 314.946-314.954 0-173.944-140.962-314.954-314.946-314.954h-137.56v92.184h136.095c123.093 0 222.789 99.739 222.789 222.772 0 123.060-99.746 222.772-222.789 222.772h-136.095v92.184zM285.868 494.091h436.903v-76.819h-436.903v76.819z" />
<glyph unicode="&#xe903;" glyph-name="radio" horiz-adv-x="993" d="M496.485 61.538c205.651 0 372.364 167.204 372.364 373.46s-166.713 373.46-372.364 373.46c-205.651 0-372.364-167.204-372.364-373.46s166.713-373.46 372.364-373.46zM0 434.998c0 274.725 222.202 497.582 496.485 497.582s496.485-222.856 496.485-497.582c0-274.725-222.202-497.582-496.485-497.582s-496.485 222.856-496.485 497.582z" />
<glyph unicode="&#xe904;" glyph-name="radio-checked" horiz-adv-x="993" d="M496.485 215.273c128.532 0 232.727 104.196 232.727 232.727s-104.196 232.727-232.727 232.727c-128.532 0-232.727-104.196-232.727-232.727s104.196-232.727 232.727-232.727zM496.485 75.636c205.651 0 372.364 166.713 372.364 372.364s-166.713 372.364-372.364 372.364c-205.651 0-372.364-166.713-372.364-372.364s166.713-372.364 372.364-372.364zM496.485-48.485c-274.201 0-496.485 222.284-496.485 496.485s222.284 496.485 496.485 496.485c274.201 0 496.485-222.284 496.485-496.485s-222.284-496.485-496.485-496.485z" />
<glyph unicode="&#xe905;" glyph-name="talk" d="M245.76 652.8c0 33.932 27.835 61.44 61.258 61.44h369.005c33.832 0 61.258-27.271 61.258-61.44 0-33.932-27.835-61.44-61.258-61.44h-369.005c-33.832 0-61.258 27.271-61.258 61.44zM245.76 407.040c0 33.932 27.511 61.44 61.321 61.44h286.957c33.867 0 61.321-27.271 61.321-61.44 0-33.932-27.511-61.44-61.321-61.44h-286.957c-33.867 0-61.321 27.271-61.321 61.44zM604.461 222.72h214.739c22.527 0 40.96 18.416 40.96 40.934v532.532c0 22.674-18.218 40.934-40.553 40.934h-656.175c-22.379 0-40.553-18.223-40.553-40.934v-532.532c0-22.606 18.332-40.934 40.96-40.934h214.739l112.941-112.941 112.941 112.941zM0 796.186c0 90.472 73.085 163.814 163.433 163.814h656.175c90.261 0 163.433-73.337 163.433-163.814v-532.532c0-90.472-73.538-163.814-163.84-163.814h-163.84l-163.84-163.84-163.84 163.84h-163.84c-90.486 0-163.84 73.337-163.84 163.814v532.532z" />
<glyph unicode="&#xe906;" glyph-name="checkbox" d="M151.704 87.736c0 0.092 720.56-0.033 720.56-0.033-0.092 0 0.033 720.56 0.033 720.56 0-0.092-720.56 0.033-720.56 0.033 0.092 0-0.033-720.56-0.033-720.56zM0 808.264c0 83.76 68.113 151.736 151.736 151.736h720.527c83.76 0 151.736-68.113 151.736-151.736v-720.527c0-83.76-68.113-151.736-151.736-151.736h-720.527c-83.76 0-151.736 68.113-151.736 151.736v720.527z" />
<glyph unicode="&#xe907;" glyph-name="checkbox-checked" d="M0 887.177c0 40.219 32.911 72.823 72.823 72.823h878.355c40.219 0 72.823-32.911 72.823-72.823v-878.355c0-40.219-32.911-72.823-72.823-72.823h-878.355c-40.219 0-72.823 32.911-72.823 72.823v878.355zM439.052 359.55l-130.334 134.253c-28.793 29.658-75.474 29.658-104.267 0s-28.793-77.744 0-107.402l156.324-161.025c43.277-44.579 113.392-44.458 156.655 0.105l338.689 348.873c28.793 29.658 28.793 77.744 0 107.402s-75.474 29.658-104.267 0l-312.801-322.206z" />
<glyph unicode="&#xe909;" glyph-name="flag" horiz-adv-x="939" d="M0 960h170.667v-1024h-170.667v1024zM42.667 960h597.333v-597.333h-597.333v597.333zM341.333 874.667h597.333v-597.333h-597.333v597.333z" />
<glyph unicode="&#xe90b;" glyph-name="image" d="M0 781.913v-756.87c0-51.671 40.070-89.043 89.021-89.043h712.37v89.043h-712.37v756.87h-89.021zM445.217 448l133.565-111.304 133.565 178.087 222.609-267.13h-667.826l178.087 200.348zM1024 870.957c0 51.742-37.302 89.043-89.043 89.043h-667.826c-51.671 0-89.043-37.302-89.043-89.043v-667.826c0-51.671 37.372-89.043 89.043-89.043h667.826c51.742 0 89.043 37.372 89.043 89.043v667.826z" />
<glyph unicode="&#xe90c;" glyph-name="logo" horiz-adv-x="2143" d="M1727.031 115.744c0.721 8.938 2.947 17.037 6.677 24.462 14.179 6.647 29.822 18.142 47.093 34.463 7.419 11.842 17.126 20.76 29.018 26.712 14.221 11.147 29.863 23.766 47.072 37.879 6.636 9.613 14.138 17.058 22.361 22.253 16.426 9.592 26.112 21.864 29.162 36.631 0.66 15.626-7.543 25.607-24.67 30.066-2.494 0.654-5.152 1.002-7.729 1.002-9.357 0-19.847-4.029-31.512-12.129-18.61-16.321-38.395-30.761-59.293-43.422-8.986-5.113-16.034-12.19-21.31-21.046-8.903-5.195-23.454-15.237-43.61-30.086-25.411-16.362-46.639-29.677-63.827-40.088-9.728-5.154-22.402-13.356-38.045-24.462-8.986-8.856-19.043-15.912-30.255-21.128-11.933-5.195-21.661-12.169-29.101-21.107-11.933-9.552-38.766-22.212-80.624-37.777-17.889-3.007-31.326-7.424-40.271-13.356-13.499-8.836-37.365-15.524-71.659-20.003-20.156-0.777-36.953-7.752-50.37-21.128-14.221-14.113-20.177-27.366-17.971-40.047 4.493-17.712 13.829-31.068 27.988-39.965 11.253-6.668 27.287-8.815 48.185-6.668 16.446 0.757 33.614 7.036 51.524 18.919 15.622 11.085 26.854 16.281 33.573 15.524 11.953 0.757 33.202 8.529 63.827 23.316 23.083 9.592 39.529 18.224 49.215 25.607 11.933 11.822 23.124 19.962 33.573 24.441 18.693 7.404 31.718 14.849 39.158 22.232 7.543 9.613 16.405 17.814 26.957 24.462 0.721 0.777 1.484 1.104 2.164 1.104 0.804 0.757 2.617 1.084 5.647 1.084 9.707 0.757 17.168 1.514 22.382 2.25 6.76 0.757 13.066 0.757 19.023 0 0.804 0.757 2.617 7.445 5.647 20.003zM2141.261 264.826c2.988 6.668 2.638 12.967-1.175 18.939-5.152 6.668-8.532 14.378-10.016 23.337 0.721 11.822-2.597 22.171-10.099 31.088-6.719 14.051-12.324 25.157-16.797 33.318-0.721 11.147-5.194 19.717-13.376 25.628-18.713 14.072-33.284 27.039-43.754 38.881-5.194 9.592-66.383 40.395-82.809 52.237-9.645 6.688-18.322 9.286-25.721 7.772-11.933-0.716-22.361 1.084-31.368 5.584-9.728 0.675-17.539 0-23.536-2.229-8.944-3.007-22.032-1.473-39.158 4.438-16.385 3.007-31.759 4.786-45.897 5.563-1.649 0.061-3.318 0.143-5.029 0.143-12.757 0-26.339-2.27-40.93-6.831-16.364-6.668-24.999-17.753-25.762-33.318 0-16.342 5.235-27.407 15.725-33.359l1.134-1.125c-14.241-11.085-29.492-21.128-45.959-29.964-7.44-5.236-14.179-11.126-20.094-17.835-7.502-5.175-20.568-14.113-39.24-26.65-23.124-14.051-42.929-25.934-59.335-35.547-9.686-4.5-21.661-11.515-35.778-21.107-7.502-7.445-16.488-13.724-26.895-18.919-11.974-4.479-21.269-10.39-28.008-17.814-11.17-9.674-35.819-20.76-73.844-33.359-16.426-2.966-28.42-6.729-35.86-11.167-11.974-7.404-33.964-12.619-66.033-15.565-17.93-0.798-33.264-7.056-45.918-18.939-13.458-13.356-19.064-25.239-16.797-35.609 2.968-16.26 11.212-28.511 24.67-36.672 9.686-6.627 24.175-9.245 43.61-7.772 15.663 0.675 31.326 6.34 47.031 16.71 14.159 9.613 24.257 14.051 30.234 13.315 11.17 0 30.605 6.279 58.242 18.878 20.877 8.856 36.108 16.321 45.877 22.232 11.212 11.167 21.331 18.571 30.234 22.273 16.446 5.175 28.338 11.904 35.84 19.983 7.44 8.979 16.034 15.646 25.741 20.126 11.892 6.668 23.515 15.524 34.727 26.65 7.44 7.404 14.901 13.008 22.423 16.73 11.871 6.647 26.092 17.058 42.455 31.088 7.481 9.695 16.446 17.405 26.937 23.378 14.117 9.613 28.73 20.698 43.61 33.318 5.235 7.424 11.974 13.744 20.238 18.898 14.138 8.897 23.083 18.898 26.792 30.025h2.226c7.481-2.25 18.239-1.493 32.439 2.229 7.44 2.925 20.939 2.577 40.353-1.104 5.194 0 9.707-0.777 13.458-2.27 0.763-2.27 2.576-5.543 5.565-9.981 5.255-11.147 10.078-24.053 14.633-38.942 2.927-14.072 6.657-21.516 11.129-22.191 4.493 0.675 10.428 1.841 17.93 3.334 6.739 0.695 15.684 2.188 26.875 4.479 5.235 0.675 13.025 1.411 23.495 2.188 3.009-0.777 6.41-2.229 10.14-4.479 20.836-18.53 35.366-39.617 43.61-63.322 6.739-13.376 7.069-35.568 1.113-66.758-8.924-29.677-20.177-51.255-33.614-64.59-5.235-5.195-11.108-12.579-17.848-22.171-18.652-22.989-35.86-37.817-51.503-44.506-6.781-0.675-11.974-4.029-15.704-9.94-9.707-9.613-32.439-17.814-68.362-24.503-27.555-7.404-48.473-8.877-62.632-4.397-5.235 0-10.428 1.452-15.684 4.397-9.686 7.404-18.239 13.335-25.741 17.855-16.426 8.815-29.863 9.592-40.271 2.209-6.739-4.459-9.728-13.029-8.986-25.628 0.68-11.822 5.214-23.337 13.417-34.443 4.493-5.195 7.44-10.779 8.965-16.669 0.721-7.445 4.493-14.072 11.232-20.003 6.657-7.404 11.459-15.176 14.468-23.337 4.493-7.363 14.591-12.231 30.275-14.44 7.461-0.757 17.539-3.354 30.275-7.793 9.666-2.148 23.866 0.409 42.517 7.793 18.672 7.404 35.057 12.619 49.215 15.585 16.488 2.884 47.814 19.983 94.123 51.112 23.041 14.031 40.312 28.511 51.482 43.36 4.431 9.633 9.295 16.26 14.53 20.003 6.739 0.716 19.352 12.21 38.024 34.463 14.221 22.151 21.331 39.617 21.331 52.216 0 9.613 0.721 17.365 2.205 23.337 9.769 25.239 11.974 41.949 6.719 50.089-2.968 11.904-2.205 21.864 2.267 30.066zM1602.756 697.2c31.347 7.404 56.284 8.856 74.998 4.459 18.59-7.465 38.828-7.015 60.427 1.104 17.951 5.236 38.437 4.806 61.581-1.104 11.933-5.175 24.69-4.868 38.066 1.104 9.707 5.236 16.034 15.565 19.064 31.17-0.763 16.24-7.873 29.227-21.228 38.82-13.437 7.404-30.296 8.59-50.452 3.375-16.405-4.459-35.448-3.722-57.088 2.209-12.881 2.454-25.865 3.6-38.931 3.6-14.88 0-29.884-1.534-45.011-4.684-25.37-7.445-45.897-8.529-61.581-3.313-16.405 5.154-29.533 2.945-39.261-6.688-9.686-9.654-15.189-21.169-16.776-34.504-0.763-14.072 4.884-25.934 16.776-35.547 16.488-7.424 36.252-7.424 59.417 0zM1257.919 330.398c0.721-5.175 8.532-10.001 23.495-14.44 18.652-5.215 36.973-4.438 54.821 2.229 5.235 2.209 12.304 2.966 21.31 2.209 7.481-0.757 18.26 2.25 32.439 8.877 13.437 8.917 29.142 13.765 47.072 14.481 20.816 0.716 36.541 5.195 46.99 13.376 11.974 7.384 24.257 14.031 36.953 19.942 16.426 5.154 30.976 14.481 43.671 27.857 7.44 7.363 16.405 12.926 26.875 16.649 8.945 2.945 15.993 9.981 21.248 21.107 5.235 7.404 11.191 13.683 17.971 18.878 13.417 9.613 23.454 19.635 30.193 30.025 6.677 11.863 11.933 24.421 15.684 37.756 11.912 2.945 23.083 2.291 33.573-2.209 14.2-6.668 29.451-5.931 45.918 2.209 14.179 4.479 27.988 3.702 41.425-2.209 14.138-4.397 29.513-3.702 45.897 2.209 14.117 2.945 31.347 3.702 51.462 2.291 29.183-2.986 52.678 0.654 70.546 11.065 25.432 9.695 43.63 23.010 54.821 40.006 14.282 14.113 21.702 36.693 22.506 67.842v66.656c0 20.76-3.030 35.915-9.027 45.61-4.513 9.592-7.832 21.107-10.037 34.484 0.721 27.366-3.792 46.285-13.52 56.655-7.399 6.668-11.5 14.419-12.263 23.337-0.742 8.897-10.408 18.878-29.121 30.004-16.405 13.335-32.48 20.371-48.164 21.087-14.159-0.716-24.979 1.473-32.46 6.709-29.863 14.051-64.157 18.51-102.985 13.294-25.329-2.925-49.648-1.432-72.751 4.479-14.324 2.393-32.687 3.538-55.068 3.538-5.626 0-11.541-0.041-17.704-0.164-24.649 0-46.639-3.743-66.074-11.126-14.2-2.966-27.658-4.888-40.25-5.625-20.98-0.695-38.54-6.954-52.657-18.858-11.933-8.917-17.58-21.476-16.776-37.817 0-16.281 10.82-27.386 32.46-33.318 25.329-4.438 51.462-0.368 78.295 12.21 32.151 15.585 66.836 19.655 104.201 12.19 27.575-2.925 62.302-3.988 104.119-3.272 60.448-2.945 94.412-9.245 101.852-18.878 5.152-4.479 11.974-8.161 20.156-11.147 5.214-2.945 9.357-8.856 12.324-17.774 0.742-4.479 5.585-12.19 14.55-23.316 3.009-8.897 4.843-17.467 5.626-25.566 0-11.883 2.617-25.218 7.811-40.006 6.739-16.362-9.336-91.486-19.023-98.992-11.933-14.092-28.75-19.635-50.369-16.649-25.473 0.716-48.226-1.882-68.341-7.752-20.094-7.445-43.239-8.243-69.413-2.27-41.033 9.633-83.18 8.14-126.521-4.438-33.593-9.592-64.157-10.37-91.733-2.209-18.713 5.175-32.542 15.524-41.487 31.129-7.419 9.695-13.417 26.323-17.889 50.007-2.988 18.571-1.875 45.59 3.38 81.116 2.947 29.616 1.855 51.132-3.38 64.509-2.988 11.065-7.832 19.635-14.571 25.566-6.719 2.986-14.55 5.236-23.474 6.668-7.481-0.757-14.55-3.682-21.372-8.877-7.419-5.215-13.726-13.376-18.94-24.503-7.522-15.544-10.841-33.318-10.078-53.3 0.701-9.695 0.371-18.898-1.072-27.857-3.050-13.335-2.679-26.691 1.072-40.026 2.988-22.191 4.802-50.744 5.565-85.555-2.226-22.907 2.205-37.797 13.417-44.424 14.2-9.715 22.444-20.412 24.649-32.193 5.214-11.904 20.898-21.148 47.031-27.877 24.608-7.404 42.497-8.856 53.77-4.397 16.385 7.363 33.944 8.12 52.595 2.168-4.472-5.175-8.924-12.169-13.437-21.087-11.191-13.315-25.35-24.073-42.517-32.234-11.974-2.25-23.186-7.424-33.614-15.565-11.253-9.613-23.866-15.524-38.086-17.753-14.159-0.757-26.834-5.563-38.066-14.481-11.933-6.709-25.020-10.779-39.179-12.21-14.241 0-26.112 1.084-35.819 3.313-14.2 3.007-28.359 2.598-42.579-1.125-13.376-4.418-23.495-9.961-30.213-16.669-7.419-8.897-10.449-19.246-8.965-31.129 0.742-7.404 2.617-12.149 5.606-14.399 2.988-0.757 4.843-4.131 5.647-10.042zM982.804 640.28c-3.174-12.742-4.307-27.98-3.545-45.487v-16.792c-3.153-4.888-7.131-9.633-11.85-14.46-2.391-0.798-4.369-2.434-5.936-4.827-0.824 0.777-1.999 1.227-3.524 1.227-11.912-0.798-24.937-0.45-39.199 1.207-15.004 2.393-27.678 3.129-37.942 2.393-0.824 2.393-1.587 3.6-2.37 3.6-2.37 3.211-4.781 5.972-7.131 8.365 0.763 4.847 1.587 9.245 2.411 13.213 0.721 19.962 5.503 35.159 14.179 45.59 7.873 9.572 14.241 19.962 18.94 31.15 3.215 10.451 5.997 22.028 8.347 34.811 0.783 16.71-1.979 31.947-8.347 45.549-5.503 10.39-12.613 16.833-21.331 19.185-9.439 2.393-22.114-2.761-37.963-15.626-14.2-10.349-21.393-24.768-21.393-43.156-0.721-9.552-4.266-21.537-10.655-35.956-0.804-5.584-0.804-13.213 0-22.764 2.349-12.763 3.607-22.764 3.607-29.964-2.391-10.411-5.132-18.408-8.326-24.032-3.174-3.17-5.173-7.588-5.915-13.151-3.153-3.191-5.956-6.443-8.264-9.633-3.236-3.232-8.738-7.179-16.652-12.006h-1.195c-19.785 0.777-34.047-0.348-42.723-3.579-7.873-5.584-18.26-7.608-30.852-5.972-10.367 2.373-20.651 2.004-30.873-1.207-12.613-2.393-24.546-2.393-35.613 0-7.893 0.777-16.962-0.43-27.184-3.62-0.824 0.757-2.102 2.025-3.607 3.62-10.284 7.179-22.588 16.771-36.808 28.777l-2.349 1.268v2.352c-9.522 15.135-13.52 35.159-11.871 59.927-0.783 10.37-3.153 28.348-7.151 53.955-0.845 10.513 5.503 29.145 19.023 56.389 0.721 3.191 1.525 5.584 2.349 7.199 10.243 7.956 28.936 17.549 55.687 28.757 0.824 0.839 2.782 1.595 5.956 2.393 5.565 0.818 11.892 0.818 19.084 0 0.721-0.082 1.546-0.102 2.411-0.102 7.11 0 17.374 2.863 30.749 8.57 31.718 15.156 64.466 18.755 98.513 10.779 26.092-5.604 47.031-6.054 62.879-1.207 29.286 10.451 65.641-3.6 109.148-42.010 17.436-19.983 27.287-41.172 29.76-63.527 0.721-27.182-0.103-47.594-2.473-61.195zM720.61 394.415c-5.585-4.786-13.891-10.308-24.979-16.771h-2.329c-7.914 2.393-16.199 2.393-24.917 0-9.522-2.434-18.631-2.434-27.266 0-7.914 0.859-18.239-1.186-30.852-5.972-15.107-3.211-26.895-10.063-35.613-20.453-0.824 12.865 1.134 24.421 5.936 34.75 3.133 9.674 5.070 22.498 5.936 38.472 2.308 5.584 5.544 10.411 9.46 14.337 3.174 5.645 9.13 11.208 17.827 16.833 0.763 0.798 3.194 1.984 7.11 3.62 7.914 0 16.611 0.757 26.133 2.393 7.873 0.757 18.528 4.766 31.986 12.026h1.216c11.809-2.475 22.155-6.402 30.873-12.026 3.091-0.859 5.915-2.802 8.285-6.013v-30.025c2.391-7.118 3.153-15.135 2.391-23.95-0.824-2.373-1.195-4.827-1.195-7.22zM1081.379 110.079c-0.866 28.777-8.8 66.431-23.804 112.9-7.914 17.61-9.501 44.751-4.699 81.464 3.153 21.619 1.937 47.655-3.586 77.987-3.194 12.804-3.194 25.239 0 37.122 3.194 14.481 3.586 26.814 1.175 37.265-3.133 12.804-3.524 22.764-1.175 29.964 5.523 12.804 8.285 29.166 8.285 49.189-2.37 29.534-1.195 57.964 3.586 85.145 2.329 10.411 2.329 19.164 0 26.384-2.37 7.159-1.608 15.606 2.329 25.157 2.37 3.252 3.998 9.224 4.781 17.958 0.742 8.099 3.978 15.217 9.46 21.578 5.565 4.786 9.542 12.415 11.912 22.805 3.194 15.217 3.194 29.616 0 43.176-7.131 24.789-20.63 42.808-40.353 54.016-11.871 5.625-19.806 12.722-23.742 21.598-3.174 5.584-9.872 11.188-20.218 16.73-7.914 3.232-18.136 4.438-30.791 3.62-9.522-0.777-18.61 1.636-27.308 7.22-5.523 4.786-12.654 7.159-21.331 7.159-7.151-0.818-16.24-0.389-27.349 1.248-17.374 3.17-38.334 2.802-62.879-1.248-15.024-3.191-30.069-2.823-45.052 1.248-5.276 1.779-10.944 2.659-16.92 2.659-10.057 0-21.022-2.516-32.975-7.568-7.048-3.15-13.005-4.275-17.765-3.497-7.935 2.393-20.177-0.43-36.747-8.406-7.172-2.434-17.065-1.963-29.698 1.186-17.394 3.252-35.222 1.636-53.399-4.827-9.501-0.736-16.591-1.145-21.331-1.145-7.955 0.777-13.479 0.777-16.611 0-0.763 0-0.763-0.389 0-1.207-14.241 10.431-30.481 10.82-48.659 1.207-11.892-5.604-24.546-24.38-38.004-56.389-14.221-27.182-19.393-57.145-15.375-89.931 0.721-31.968 8.264-58.373 22.567-79.132 10.284-14.399 16.549-34.443 18.919-59.927 3.174-44.056 3.998-73.61 2.349-88.766-2.349-16.792-1.937-35.199 1.195-55.243 0.763-11.945-0.783-23.93-4.781-35.895-0.68-5.747-1.958-15.237-3.442-28.818 5.462-17.61 4.678-35.568-2.432-53.996-12.634-29.575-19.002-60.336-19.002-92.284 0-8.018-2.37-17.201-7.11-27.652-3.174-14.378-8.264-30.925-15.436-49.23-3.174-3.191-5.544-9.245-7.048-18.019 0-10.411-6.76-23.623-20.197-39.597-7.955-12.824-14.695-22.437-20.197-28.818-3.174-7.956-6.327-17.119-9.48-27.55-0.845-10.411 0-20.821 2.349-31.191 3.174-10.411 9.851-19.553 20.135-27.611 11.871-5.543 23-7.936 33.284-7.138 11.809 2.311 24.917 9.654 39.158 21.557 9.419 10.39 16.158 21.557 20.115 33.604 3.194 17.63 10.738 41.192 22.567 70.767 3.194 10.37 4.781 18.326 4.781 23.93 0 9.654 1.958 18.776 5.915 27.673 3.174 7.997 4.72 15.585 4.72 22.805-0.721 7.159 0 13.622 2.453 19.205 0.701 7.22 1.566 14.44 2.349 21.639-0.783 9.552 1.546 20.739 7.11 33.563 3.153 15.217 4.761 28.041 4.761 38.329-0.783 2.475-1.195 4.479-1.195 6.075 4.699-3.17 10.655-6.831 17.765-10.82 5.544-0.757 11.871-1.186 19.002-1.186 2.329-2.373 4.72-5.972 7.193-10.758 2.308-3.232 4.266-7.629 5.853-13.192v-9.654c-0.804-7.199-1.979-15.565-3.545-25.157-2.453-20.003-0.392-46.469 5.915-79.296 7.873-24.83 20.156-39.597 36.788-44.362 7.069-2.413 13.025-4.397 17.786-6.034 4.74-0.757 10.222-0.757 16.632 0 10.264 4.847 17.786 13.192 22.526 25.218 5.565 11.965 3.236 21.107-7.090 27.611-2.432 3.15-4.369 7.179-5.936 11.985-3.174 7.179-4.802 15.606-4.802 25.198v25.28c-0.824 5.625-0.371 12.804 1.278 21.598 7.028 19.962 9.419 36.018 7.028 48.003l-1.113 1.186c11.83 7.915 34.067 17.569 66.404 28.695h1.237c12.654-3.15 26.133-2.761 40.312 1.309 18.94 3.15 37.179 2.352 54.594-2.413 24.484-8.099 46.289-8.365 65.291-1.227 16.57 7.956 24.402 19.185 23.68 33.584 0 16.73-6.677 29.534-20.177 38.37-11.83 7.977-24.113 12.354-36.788 13.213-11.871-0.859-25.308-0.859-40.333 0-14.262 2.352-26.524 3.211-36.808 2.352-0.763 0.859-1.525 1.636-2.391 2.413-7.873 5.604-15.024 12.415-21.248 20.392 0 2.413 0.35 3.927 1.134 4.745 2.391 5.625 3.091 11.638 2.391 18.019-0.845 10.451-1.216 20.003-1.216 28.818 0 0.798-0.412 1.984-1.175 3.579 3.091 3.252 7.131 5.604 11.85 7.199 3.256 2.434 9.13 4.459 17.807 6.013 7.873 0 16.982 1.207 27.349 3.559 24.484 4.827 49.009 3.62 73.576-3.559 2.349-0.818 4.307-1.554 5.853-2.413 4.843-3.191 11.871-9.613 21.351-19.164 5.544-3.232 11.892-8.877 19.023-16.792 0.763-14.358 2.37-26.384 4.72-36.018 2.411-17.61 1.649-34.34-2.349-50.355-3.194-12.006-3.957-28.348-2.37-49.128 0.763-17.671 0.763-30.843 0-39.576-0.824-8.038-0.824-16.812 0-26.405 5.544-34.463 6.368-69.642 2.37-105.742-2.432-11.945-0.371-30.004 5.894-53.934 2.37-9.613 2.37-18.837 0-27.591-2.37-7.159-2.37-13.99 0-20.351 3.194-7.199 4.39-15.626 3.586-25.259-0.804-10.329 3.998-23.93 14.221-40.722 9.501-12.824 21.001-19.635 34.438-20.371 15.045 0 28.441 5.175 40.353 15.524 3.133 3.211 6.327 9.245 9.48 18.121 0.804 5.543 3.133 12.701 7.131 21.476 3.153 11.985 2.762 28.041-1.175 48.023-4.781 16.771-7.935 36.795-9.46 59.948zM155.787 352.426c-11.892 12.804-19.393 26.384-22.629 40.824-0.721 8.018 3.957 16.792 14.324 26.302 7.873 7.281 12.675 17.63 14.2 31.293 0.824 9.552 6.327 17.549 16.652 23.95 14.962 9.572 25.679 21.987 32.027 37.142 3.153 10.411 10.202 16.485 21.393 17.999 12.551 0.839 22.114 3.968 28.441 9.592 0 0.839 0.412 1.166 1.134 1.166 11.892-3.15 22.196-7.077 30.852-11.924 2.411-2.495 3.998-4.786 4.781-7.199 0.763-2.393 2.762-5.154 5.915-8.447 5.544-5.584 9.872-12.783 13.087-21.537 2.329-7.22 4.349-12.006 5.915-14.358 5.606-5.665 9.13-15.606 10.717-30.004 0.763-15.156-0.845-27.939-4.761-38.451-3.174-7.936-4.74-19.144-4.74-33.563v-2.311c-9.48-12.824-21.393-22.437-35.613-28.839-14.262-5.563-25.741-7.608-34.459-6.013-5.523 2.393-13.788 1.575-24.855-2.352-1.834-0.777-3.854-1.186-5.977-1.186-4.204 0-8.945 1.575-14.179 4.806-4.802 3.129-13.066 5.154-24.917 5.931-9.522 0-18.631 2.393-27.308 7.179zM230.497 243.33c10.284 3.191 20.96 4.806 32.048 4.806 28.544 2.413 50.205 12.804 65.291 31.17 10.284 12.824 22.959 24.032 37.963 33.584 7.914 5.563 13.891 10.799 17.786 15.565 7.11 3.211 13.829 7.997 20.177 14.399 9.46 11.985 14.591 26.834 15.498 44.424 0.721 7.956-0.907 17.61-4.823 28.777-3.194 8.018-5.503 20.412-7.151 37.142-0.742 12.804-4.307 27.611-10.655 44.444-3.133 10.329-7.522 17.14-13.046 20.351-5.503 5.604-9.872 12.415-13.005 20.33-3.256 9.633-8.8 16.015-16.694 19.226-3.091 0.757-5.874 3.559-8.244 8.386-0.804 0.839-1.628 1.554-2.411 2.434-0.783 11.985-1.999 21.966-3.483 29.902-0.866 0.859-1.257 2.454-1.257 4.847 0.824 4.745 2.37 9.183 4.74 13.151 0.783 7.24 4.781 14.031 11.892 20.432 10.284 10.39 25.267 18.817 45.073 25.178 7.976 0.757 15.024 8.386 21.331 22.805 3.194 9.552 3.194 19.205 0 28.798-4.72 10.349-5.091 18.735-1.113 25.178 3.133 4.745 0.35 13.151-8.306 25.218-14.282 19.123-32.419 29.554-54.636 31.129-7.935 0-14.241 1.145-18.981 3.538-7.090 3.293-13.417 2.843-19.023-1.104-4.72-3.252-9.81-5.236-15.375-6.013-10.264 0-17.374-4.009-21.331-12.026-5.565-12.763-5.194-21.189 1.154-25.218 15.045-7.997 22.918-15.156 23.742-21.537 2.308-5.604 0.763-11.576-4.781-17.999-3.153-3.211-6.327-9.224-9.48-17.978-3.174-11.985-8.677-20.412-16.549-25.239-3.194-2.352-5.956-6.34-8.347-11.945-3.174-10.37-9.13-15.953-17.827-16.771-5.523-0.859-11.438-4.356-17.827-10.799-7.007-8.038-16.178-9.224-27.246-3.6-2.37 2.352-7.914 4.029-16.611 4.786-9.46 0.818-15.416 4.418-17.745 10.779-0.824 3.211-4.019 5.625-9.563 7.24-5.544 3.15-12.634 11.515-21.331 25.137-4.781 10.39-1.958 26.384 8.326 47.983 3.174 19.164 7.461 30.761 13.005 34.831 3.174 0.736 6.739 6.361 10.696 16.71 3.153 9.613 7.522 16.792 13.066 21.66 4.678 2.352 7.852 8.018 9.501 16.792 0.721 4.766 4.287 11.126 10.655 19.103 4.761 5.604 9.563 7.956 14.282 7.199 3.174 0 7.007 1.984 11.871 5.993 5.523 4.806 11.809 6.402 18.919 4.806 7.893-0.798 15.066 1.207 21.393 6.095 3.112 3.129 9.501 4.336 19.023 3.518 7.873-0.777 18.157 4.029 30.791 14.419 5.606 3.15 7.873 11.945 7.172 26.425-0.763 15.115-10.758 29.554-29.719 43.074-16.57 9.654-31.223 12.804-43.857 9.654-4.802-0.818-11.912 0.348-21.393 3.559-4.699 1.289-9.109 1.923-13.231 1.923-6.203 0-11.686-1.411-16.446-4.377-4.678-3.109-10.717-4.786-17.786-4.786-7.090 0.859-17.003-10.37-29.678-33.502-4.72-9.613-9.46-15.237-14.262-16.812-5.565-3.17-9.522-8.365-11.83-15.667-0.783-5.563-3.565-9.899-8.285-13.11-5.544-4.827-9.934-10.451-13.108-16.792-2.37-7.997-5.132-13.172-8.326-15.606-4.678-4.786-14.571-21.578-29.616-50.376-12.654-24.748-18.981-41.172-18.981-49.107 0.763-5.645-1.587-10.84-7.151-15.626-4.72-3.17-6.739-16.383-5.956-39.556 0.866-7.22 4.019-13.622 9.563-19.226s7.873-10.799 7.090-15.503c-0.824-7.24 1.979-12.435 8.285-15.646 4.781-2.393 8.738-5.645 11.871-9.572 3.153-8.058 11.459-14.44 24.896-19.185 5.565-0.859 10.696-4.827 15.498-12.047 4.699-5.543 7.481-11.576 8.264-17.999 5.523-12.763 5.173-25.955-1.154-39.535-10.284-15.197-15.849-28.43-16.652-39.556-0.783-12.047-5.111-19.983-13.005-24.032-11.933-4.786-23.825-21.169-35.675-49.189-7.873-15.156-10.614-28.777-8.223-40.763 3.112-11.945 4.349-22.355 3.504-31.211-0.824-12.722 8.326-34.77 27.287-65.92 21.393-17.569 43.527-25.566 66.507-23.991 14.2 0.798 29.224-3.211 45.073-12.006 11.85-7.138 24.505-9.122 37.942-5.972zM124.894 198.906c-7.255 9.797-15.643 14.644-25.123 14.644-2.988 0-6.1-0.45-9.274-1.391-14.262-4.868-24.113-18.449-29.636-40.844-3.133-9.654-9.501-19.308-19.064-28.818-16.508-20.023-24.855-42.828-24.855-68.435-2.391-17.549-6.781-32.725-13.087-45.528-4.699-16.833-5.132-33.216-1.134-49.189 3.133-14.419 11.459-23.603 24.834-27.611 14.241-3.15 26.133-1.575 35.696 4.827 9.439 4.827 16.137 15.197 20.094 31.15 4.781 15.217 9.913 28.839 15.457 40.824 9.48 10.37 17.023 22.355 22.526 35.936 5.544 12.783 6.327 26.834 2.411 42.031-0.824 15.156-0.392 29.964 1.154 44.403 7.131 20.044 7.131 36.038 0 48.003zM422.721 98.073c3.236 10.37 4.369 19.144 3.586 26.384-0.804 7.138-2.391 16.035-4.781 26.446 0.824 5.604 0.824 10.758 0 15.524-2.267 4.888-3.895 10.472-4.72 16.853-2.37 12.047-7.873 24.462-16.611 37.265-7.914 10.451-18.198 15.606-30.811 15.606-1.999 0.102-3.854 0.123-5.626 0.123-13.85 0-21.454-2.863-22.897-8.488-2.37-4.847-5.523-8.815-9.46-12.026-3.112-0.839-5.544-8.468-7.11-22.846 2.349-12.824 3.545-21.966 3.545-27.591 0-7.261 4.328-20.392 13.025-39.597 2.37-12.865 11.83-25.668 28.523-38.411 12.613-12.824 22.897-17.651 30.811-14.399 7.976 2.413 15.416 10.799 22.526 25.157zM273.22 125.725c0.804 11.904-0.824 25.178-4.72 39.597-4.802 10.411-12.737 17.549-23.742 21.619-8.264 2.761-14.839 4.172-19.579 4.172s-7.667-1.411-8.841-4.172c-3.236-3.252-7.172-5.625-11.933-7.261-3.215 0-7.151-6.402-11.85-19.144-3.153-27.305-5.936-46.489-8.326-57.677-2.349-14.378-0.371-43.135 5.894-86.373-0.721-11.965 4.431-25.955 15.478-41.969 7.914-15.156 15.828-22.355 23.66-21.598 8.017 0 17.065 5.665 27.328 16.833 5.565 8.018 9.151 15.585 10.717 22.785 0.804 5.604 1.587 13.969 2.349 25.178 7.914 17.651 11.108 34.402 9.501 50.376-4.72 17.59-6.76 36.774-5.936 57.636zM732.461 670.264c-2.391 4.806-4.307 10.001-5.956 15.565-2.349 12.047-7.481 24.012-15.375 36.018-7.914 7.956-17.827 12.292-29.739 13.151-1.855 0.102-3.607 0.164-5.297 0.164-13.128 0-20.115-2.904-20.795-8.488-2.308-4.827-5.544-8.447-9.46-10.84-3.133-0.777-5.173-7.977-5.894-21.598 2.308-12.763 3.545-21.578 3.545-26.384 0.783-7.138 5.091-19.983 13.025-38.329 2.349-11.985 11.871-23.603 28.462-34.729 11.933-12.006 21.393-16.485 28.482-13.315 7.873 2.454 14.695 10.513 20.218 24.073 3.215 10.349 4.307 18.714 3.545 25.116-0.783 5.604-2.453 13.969-4.761 25.198 0.804 5.686 0.804 10.411 0 14.399zM914.030 168.922c-10.531 6.054-20.836 9.081-31.017 9.081-5.956 0-11.809-1.043-17.642-3.068-5.544-3.293-15.045-5.256-28.462-6.013-14.303-0.839-24.628-2.066-30.894-3.6-5.503-2.393-13.066-4.479-22.526-6.013-12.654-0.859-23.33-6.872-32.048-18.019-5.503-10.451-8.677-20.023-9.501-28.859 0.824-12.763 6.739-22.764 17.848-29.923 21.331-5.584 39.117-6.054 53.358-1.227 4.699 2.434 10.243 3.538 16.57 3.538 5.544 0 10.676 0.47 15.478 1.227 0.763 0.879 5.132 0.43 13.108-1.227 26.834-3.17 47.793 0 62.818 9.695 11.892 7.159 17.374 19.962 16.591 38.37-2.308 16.792-10.264 28.777-23.68 36.038z" />
<glyph unicode="&#xe90d;" glyph-name="like" horiz-adv-x="1103" d="M97.973 513.094c0.821-2.218 0.821-2.218 0.997-2.71 9.438-23.263 22.824-48.691 39.826-75.585 41.182-65.145 101.737-136.21 176.497-209.898 52.498-51.744 108.866-101.761 166.124-148.825 20.221-16.621 39.118-31.692 57.152-45.723 3.209-2.497 7.543-5.841 11.807-9.124 4.3 3.321 8.677 6.709 11.915 9.236 18.011 14.056 36.932 29.187 57.193 45.882 57.442 47.33 114.034 97.621 166.736 149.59 72.773 71.761 132.15 140.956 173.334 204.523 6.994 10.795 13.421 21.368 19.265 31.701l2.084 3.473c1.954 3.075 1.824 2.832 7.535 13.843 1.741 3.701 2.952 6.167 2.967 6.042l2.175 4.225c0.719 1.343 1.272 2.332 1.93 3.432 5.125 10.547 9.317 20.612 13.124 31.503 10.285 27.925 14.927 50.648 14.927 70.119 0-0.017-0.364 5.674-0.364 5.674l0.268 4.782c0.161 2.692 0.161 2.692 0.293 4.764 0.172 2.81 0.243 4.586 0.243 6.263 0 147.116-110.194 264.951-242.556 264.951-63.922 0-125.793-28.531-171.485-79.244l-58.412-64.83-58.53 64.723c-45.944 50.805-107.868 79.351-171.691 79.351-132.47 0-242.556-117.721-242.556-264.951 0-1.935 0.165-4.172 0.54-7.304l0.889-7.423-0.523-7.457c0.165-22.978 5.988-49.778 18.298-81.002zM1102.769 616.28c0-6.266-0.44-11.524-0.659-15.441 0.11-1.678 0.22-3.804 0.22-6.042 0-29.762-6.594-61.538-19.781-97.343-4.835-13.874-10.879-28.196-18.572-43.524-0.549-0.671-1.868-3.133-1.868-3.133-1.099-2.014-1.978-4.028-2.967-6.042-3.297-6.378-6.923-13.762-11.758-21.371-127.695-225.79-449.13-464.224-462.866-475.301-10.11-8.056-21.978-12.084-34.067-12.084-11.978 0-23.737 3.804-33.737 11.748-16.044 12.867-392.975 291.357-490.889 533.483-0.549 1.231-0.989 2.573-1.538 4.028-15.495 39.273-23.407 76.084-23.407 109.65 0 1.678 0.11 3.133 0.22 4.699-0.549 4.587-1.099 10.294-1.099 16.671 0 189.65 144.179 343.72 321.325 343.72 87.364 0 170.113-38.937 230.114-105.287 59.781 66.35 142.53 105.287 230.005 105.287 177.036 0 321.325-154.182 321.325-343.72z" />
<glyph unicode="&#xe90e;" glyph-name="liked" horiz-adv-x="1103" d="M1102.769 616.28c0 189.538-144.289 343.72-321.325 343.72-87.474 0-170.223-38.937-230.005-105.287-60.001 66.35-142.75 105.287-230.114 105.287-177.146 0-321.325-154.070-321.325-343.72 0-6.378 0.549-12.084 1.099-16.671-0.11-1.566-0.22-3.021-0.22-4.699 0-33.566 7.912-70.378 23.407-109.65 0.549-1.455 0.989-2.797 1.538-4.028 97.914-242.126 474.845-520.615 490.889-533.483 10-7.944 21.759-11.748 33.737-11.748 12.088 0 23.957 4.028 34.067 12.084 13.737 11.077 335.172 249.51 462.866 475.301 4.835 7.608 8.462 14.993 11.758 21.371 0.989 2.014 1.868 4.028 2.967 6.042l0.44 0.895c0.44 0.783 0.879 1.566 1.429 2.238 7.692 15.329 13.737 29.65 18.572 43.524 13.187 35.804 19.781 67.58 19.781 97.343 0 2.238-0.11 4.364-0.22 6.042 0.22 3.916 0.659 9.175 0.659 15.441z" />
<glyph unicode="&#xe90f;" glyph-name="timeline" d="M905.846 448c0-217.554-176.307-393.846-393.846-393.846-217.554 0-393.846 176.307-393.846 393.846 0 217.554 176.307 393.846 393.846 393.846 217.554 0 393.846-176.307 393.846-393.846zM1024 448c0 282.77-229.168 512-512 512-282.77 0-512-229.168-512-512 0-282.77 229.168-512 512-512 282.77 0 512 229.168 512 512zM492.308 723.692c-32.627 0-59.077-26.45-59.077-59.077v-196.923c0-32.627 26.45-59.077 59.077-59.077s59.077 26.45 59.077 59.077v196.923c0 32.627-26.45 59.077-59.077 59.077zM464.049 484.996c-23.071-23.071-23.071-60.476 0-83.547l139.246-139.246c23.071-23.071 60.476-23.071 83.547 0s23.071 60.476 0 83.547l-139.246 139.246c-23.071 23.071-60.476 23.071-83.547 0z" />
<glyph unicode="&#xe910;" glyph-name="read" d="M80.843 960.843h834.903c44.905 0 81.308-35.883 81.308-80.842 0-44.648-35.917-80.842-81.308-80.842h-834.903v161.684zM80.843 529.684h620.261c44.387 0 80.372-35.883 80.372-80.842 0-44.648-35.707-80.842-80.372-80.842h-620.261v161.684zM80.843 98.526h403.866c44.838 0 81.187-35.883 81.187-80.842 0-44.648-36.457-80.842-81.187-80.842h-403.866v161.684z" />
<glyph unicode="&#xe911;" glyph-name="audio" horiz-adv-x="972" d="M104.136 369.898h190.915v-433.898h381.831v433.898h190.915v104.185c0 210.918-170.951 381.781-381.831 381.781-210.926 0-381.831-170.929-381.831-381.781v-104.185zM0 473.865c0 268.485 217.515 486.135 485.966 486.135 268.392 0 485.966-217.477 485.966-486.135v-390.606c0-81.329-66.041-147.259-147.352-147.259h-677.229c-81.38 0-147.352 66.006-147.352 147.259v390.606z" />
<glyph unicode="&#xe913;" glyph-name="arrow" horiz-adv-x="593" d="M15.931 28.147c-21.241-21.080-21.241-55.257 0-76.337s55.68-21.080 76.921 0l499.99 496.19-499.99 496.19c-21.241 21.080-55.68 21.080-76.921 0s-21.241-55.257 0-76.337l423.068-419.853-423.068-419.853z" />
<glyph unicode="&#xe914;" glyph-name="live" horiz-adv-x="1605" d="M0.090 724.879c0 122.276 99.093 221.401 221.345 221.401h719.556c122.246 0 221.345-99.163 221.345-221.401v-553.41c0-122.276-99.093-221.401-221.345-221.401h-719.556c-122.246 0-221.345 99.163-221.345 221.401v553.41zM1217.684 696.73l229.839 164.171c87.027 62.162 157.577 25.688 157.577-81.36v-662.741c0-107.096-70.608-143.481-157.577-81.36l-229.839 164.171v497.12z" />
<glyph unicode="&#xe977;" glyph-name="quotes-left" d="M225 512c123.712 0 224-100.29 224-224 0-123.712-100.288-224-224-224s-224 100.288-224 224l-1 32c0 247.424 200.576 448 448 448v-128c-85.474 0-165.834-33.286-226.274-93.726-11.634-11.636-22.252-24.016-31.83-37.020 11.438 1.8 23.16 2.746 35.104 2.746zM801 512c123.71 0 224-100.29 224-224 0-123.712-100.29-224-224-224s-224 100.288-224 224l-1 32c0 247.424 200.576 448 448 448v-128c-85.474 0-165.834-33.286-226.274-93.726-11.636-11.636-22.254-24.016-31.832-37.020 11.44 1.8 23.16 2.746 35.106 2.746z" />
<glyph unicode="&#xe978;" glyph-name="quotes-right" d="M800 320c-123.712 0-224 100.29-224 224 0 123.712 100.288 224 224 224s224-100.288 224-224l1-32c0-247.424-200.576-448-448-448v128c85.474 0 165.834 33.286 226.274 93.726 11.634 11.636 22.252 24.016 31.83 37.020-11.438-1.8-23.16-2.746-35.104-2.746zM224 320c-123.71 0-224 100.29-224 224 0 123.712 100.29 224 224 224s224-100.288 224-224l1-32c0-247.424-200.576-448-448-448v128c85.474 0 165.834 33.286 226.274 93.726 11.636 11.636 22.254 24.016 31.832 37.020-11.44-1.8-23.16-2.746-35.106-2.746z" />
</font>
</defs>
</svg>
