<?xml version="1.0" standalone="no"?>
<!DOCTYPE svg PUBLIC "-//W3C//DTD SVG 1.1//EN" "http://www.w3.org/Graphics/SVG/1.1/DTD/svg11.dtd" >
<!--
2013-9-30: Created.
-->
<svg>
<metadata>
Created by iconfont
</metadata>
<defs>

<font id="iconfont" horiz-adv-x="1024" >
  <font-face
    font-family="iconfont"
    font-weight="500"
    font-stretch="normal"
    units-per-em="1024"
    ascent="896"
    descent="-128"
  />
    <missing-glyph />
    
    <glyph glyph-name="all" unicode="&#59030;" d="M460.8 409.6 486.4 409.6 486.4 435.2 486.4 652.8C486.4 787.115651 377.51565 896 243.2 896 108.884349 896 0 787.115651 0 652.8 0 518.48435 108.884349 409.6 243.2 409.6L460.8 409.6ZM51.2 652.8C51.2 758.838672 137.161328 844.8 243.2 844.8 349.238671 844.8 435.2 758.838672 435.2 652.8L435.2 435.2 460.8 460.8 243.2 460.8C137.161328 460.8 51.2 546.761329 51.2 652.8ZM460.8 307.2 435.2 332.8 435.2 115.2C435.2 9.161329 349.238671-76.8 243.2-76.8 137.161328-76.8 51.2 9.161329 51.2 115.2 51.2 221.238671 137.161328 307.2 243.2 307.2L460.8 307.2ZM0 115.2C0-19.11565 108.884349-128 243.2-128 377.51565-128 486.4-19.11565 486.4 115.2L486.4 332.8 486.4 358.4 460.8 358.4 243.2 358.4C108.884349 358.4 0 249.51565 0 115.2ZM563.2 460.8 588.8 435.2 588.8 652.8C588.8 758.838672 674.761329 844.8 780.8 844.8 886.838671 844.8 972.8 758.838672 972.8 652.8 972.8 546.761329 886.838671 460.8 780.8 460.8L563.2 460.8ZM1024 652.8C1024 787.115651 915.11565 896 780.8 896 646.48435 896 537.6 787.115651 537.6 652.8L537.6 435.2 537.6 409.6 563.2 409.6 780.8 409.6C915.11565 409.6 1024 518.48435 1024 652.8ZM1024 115.2C1024 249.51565 915.11565 358.4 780.8 358.4L563.2 358.4 537.6 358.4 537.6 332.8 537.6 115.2C537.6-19.11565 646.48435-128 780.8-128 818.513163-128 855.051123-119.390662 888.179087-103.065099 900.861235-96.815296 906.075682-81.467919 899.825882-68.785773 893.576079-56.103625 878.228702-50.889178 865.546554-57.138978 839.420429-70.014014 810.620764-76.8 780.8-76.8 674.761329-76.8 588.8 9.161329 588.8 115.2L588.8 332.8 563.2 307.2 780.8 307.2C886.838671 307.2 972.8 221.238671 972.8 115.2 972.8 96.530451 970.142607 78.244269 964.968006 60.720557 960.963957 47.160894 968.71031 32.92269 982.269973 28.918639 995.829636 24.914588 1010.06784 32.660943 1014.071891 46.220606 1020.63305 68.439878 1024 91.608704 1024 115.2Z"  horiz-adv-x="1024" />

    
    <glyph glyph-name="bierenxihuanpx" unicode="&#58881;" d="M859.46 896c-103.48 0-201.245-44.57-266.619-117.113-65.373 72.542-163.139 117.113-266.616 117.113-183.943 0-326.225-133.659-326.225-306.823 0-211.968 201.19-382.275 506.61-644.58l86.233-72.597 86.232 72.596c305.421 262.306 506.61 432.613 506.61 644.581-0.001 173.164-142.283 306.823-326.225 306.823zM629.49 17.893l-12.234-10.078-24.414-20.858-24.414 20.858-12.234 10.078c-143.738 123.58-268.019 229.915-349.939 325.524-79.764 92.7-114.957 168.152-114.957 245.76 0 61.063 23.713 117.114 67.53 158.074 43.116 40.96 102.723 63.218 167.397 63.218 73.997 0 148.049-32.337 196.877-86.932l69.74-77.609 69.686 77.609c48.883 54.595 122.88 86.932 196.877 86.932 64.674 0 124.336-22.258 167.451-63.218 43.817-40.96 67.53-97.011 67.53-158.074 0-77.608-35.193-153.060-114.957-245.76-81.92-95.609-206.201-201.943-349.938-325.524z"  horiz-adv-x="1185" />

    
    <glyph glyph-name="quanpingpx" unicode="&#58882;" d="M303.56 895.26H37.773A36.978 36.978 0 0 1 0.796 858.283v-265.956a36.978 36.978 0 1 1 73.956 0V768.284l197.234-201.557a36.864 36.864 0 0 1 52.338-0.569 36.978 36.978 0 0 1 0.568 52.281L126.293 821.305H303.56a36.978 36.978 0 1 1 0 73.955z m0-948.622H126.292l198.543 202.866a36.978 36.978 0 1 1-52.85 51.712L74.752-0.341v175.9a36.978 36.978 0 1 1-73.956 0v-265.955c0-20.424 16.555-36.978 36.978-36.978H303.56a36.978 36.978 0 1 1 0 74.012zM986.225 895.26H720.44a36.978 36.978 0 1 1 0-73.955h177.266L699.164 618.439a36.978 36.978 0 1 1 52.907-51.712l197.234 201.557v-175.9a36.978 36.978 0 1 1 73.955 0V858.283A37.035 37.035 0 0 1 986.226 895.26z m0-682.666a36.978 36.978 0 0 1-36.978-36.978v-175.9L752.014 201.273a36.978 36.978 0 1 1-52.85-51.712l198.543-202.866H720.44a36.978 36.978 0 1 1 0-73.955h265.785a36.978 36.978 0 0 1 36.978 36.977V175.673a36.978 36.978 0 0 1-36.978 36.92z"  horiz-adv-x="1024" />

    
    <glyph glyph-name="iconsvg-" unicode="&#58883;" d="M575.488 381.355l434.261 433.408c7.426 7.668 12.003 18.134 12.003 29.668 0 23.564-19.103 42.667-42.667 42.667-11.492 0-21.923-4.543-29.594-11.932l-434.334-433.396-433.407 434.262c-7.728 7.738-18.409 12.525-30.208 12.525-23.577 0-42.69-19.113-42.69-42.69 0-11.778 4.77-22.442 12.483-30.165l433.407-434.262-434.261-433.408c-7.426-7.668-12.003-18.134-12.003-29.668 0-23.564 19.103-42.667 42.667-42.667 11.492 0 21.923 4.543 29.594 11.932l434.249 433.395 433.408-434.261c7.774-8.072 18.676-13.086 30.748-13.086 23.564 0 42.667 19.103 42.667 42.667 0 12.030-4.978 22.897-12.988 30.653l-433.334 434.358z"  horiz-adv-x="1024" />

    
    <glyph glyph-name="shengyinpx" unicode="&#58884;" d="M480.021324 870.529258L239.75776 659.600396H120.36797C56.884613 659.600396 0.261187 605.02495 0.261187 535.397655v-309.173866c0-68.910301 53.24446-123.536748 120.106783-123.536747h105.770928l253.882426-207.498897c60.053391-47.766516 116.010824-18.430813 116.010824 58.005412V812.523846c0 79.814191-60.052391 109.200893-116.010824 58.005412z m52.527468-913.854736c0-25.239744 0-25.239744-17.76482-10.90489L254.092614 157.36448700000005a26.468732 26.468732 0 0 1-17.76482 6.808931H120.36797c-32.099675 0-60.053391 29.335703-60.053391 62.101371V535.397655c0 32.765668 28.004716 62.10137 60.053391 62.101371H250.712649c6.808931 0 14.334855 3.429965 17.76482 7.525924l246.407502 218.402786c17.76582 14.335855 17.76582 14.335855 17.76582-7.524924v-859.22829zM811.006969 546.303545a307.689881 307.689881 0 0 1-49.148502 62.10137c-10.239896 10.904889-31.383682 10.904889-42.288571-3.429965-10.238896-10.904889-10.238896-32.765668 3.429965-43.670557l10.90489-10.90489c10.239896-10.904889 21.144786-25.956737 28.004716-40.291591 63.483356-98.297004 63.483356-204.067931-42.287572-316.70079-10.239896-10.904889-10.239896-32.765668 0-43.669557 10.904889-10.904889 32.099675-10.904889 42.287572 0 123.485748 138.588595 123.485748 276.459198 49.097502 396.56598zM934.542717 688.2701059999999c-17.76482 29.335703-38.909606 54.575447-60.053391 80.531183-10.239896 14.335855-21.143786 21.861778-28.004717 28.66971-10.238896 10.905889-31.382682 10.905889-42.33957-3.429965-10.238896-10.903889-10.238896-32.764668 3.429965-43.669558 3.429965-3.429965 14.335855-10.904889 24.574751-25.239744 17.76582-21.860778 35.47964-43.670557 53.24446-73.00626 116.010824-182.208153 116.010824-382.180126-77.819211-589.679023-10.238896-10.904889-10.238896-32.765668 0-43.670557 10.905889-10.904889 32.100675-10.904889 42.339571 0 215.02482 232.687641 215.02482 466.142275 84.628142 669.493214z"  horiz-adv-x="1024" />

    
    <glyph glyph-name="suoxiaopx" unicode="&#58885;" d="M720.429 555.826h265.772c20.421 0 36.976 16.555 36.976 36.976 0 20.421-16.555 36.976-36.976 36.976h-177.257l198.532 202.856c6.838 6.715 11.075 16.057 11.075 26.389 0 20.421-16.555 36.976-36.976 36.976-10.615 0-20.185-4.473-26.929-11.637l-197.239-201.567v175.949c0 20.421-16.555 36.976-36.976 36.976s-36.976-16.555-36.976-36.976l0-265.942c0-20.422 16.554-36.976 36.976-36.976zM1023.178 175.657c0 20.421-16.555 36.976-36.976 36.976l-265.772 0c-20.421-0-36.976-16.555-36.976-36.976v-265.942c0-20.421 16.555-36.976 36.976-36.976s36.976 16.555 36.976 36.976l-0 175.949 197.223-201.548c6.707-6.903 16.078-11.187 26.45-11.187 10.090 0 19.233 4.054 25.889 10.622 6.855 6.714 11.107 16.071 11.107 26.42 0 10.066-4.022 19.193-10.548 25.861l-198.526 202.849h177.257c20.396 0.033 36.918 16.575 36.918 36.976 0 0-0 0-0 0zM303.57 212.576h-265.771c-0.057 0-0.125 0-0.192 0-20.421 0-36.976-16.555-36.976-36.976 0-20.421 16.555-36.976 36.976-36.976 0.068 0 0.135 0 0.203 0.001l177.247-0-198.532-202.856c-6.516-6.662-10.537-15.789-10.537-25.855 0-20.428 16.56-36.989 36.989-36.989 10.363 0 19.73 4.261 26.445 11.127l197.231 201.554v-175.949c0-20.421 16.555-36.976 36.976-36.976s36.976 16.555 36.976 36.976v265.942c-0.032 20.428-16.6 36.976-37.033 36.976-0 0-0-0-0-0zM303.57 895.721c-0 0-0 0-0 0-20.421 0-36.976-16.555-36.976-36.976l0-175.949-197.223 201.548c-6.761 7.183-16.332 11.656-26.947 11.656-20.421 0-36.976-16.555-36.976-36.976 0-10.332 4.238-19.674 11.070-26.384l198.537-202.861h-177.257c-20.421 0-36.976-16.555-36.976-36.976 0-20.421 16.555-36.976 36.976-36.976h265.772c20.421 0 36.976 16.555 36.976 36.976v265.942c-0.001 20.421-16.555 36.975-36.976 36.975-0 0-0.001-0-0.001-0z"  horiz-adv-x="1024" />

    
    <glyph glyph-name="iconsvg-1" unicode="&#58886;" d="M512 896c-282.807 0-512-229.193-512-512s229.193-512 512-512 512 229.193 512 512-229.193 512-512 512zM512-69.010c-249.673 0-453.010 203.337-453.010 453.010s203.337 453.010 453.010 453.010 453.010-203.337 453.010-453.010-203.337-453.010-453.010-453.010zM510.062 163.109c-17.080 0-44.361-13.642-44.361-30.72 0-16.567 26.806-34.122 43.885-34.122 16.567 0 43.41 18.542 43.41 35.584s-25.892 29.258-42.934 29.258zM549.559 664.393c-54.126 8.265-110.702-7.314-151.662-41.947-44.873-38.035-57.527-111.653-58.514-119.955-2.926-16.091 8.302-31.195 24.393-33.645 1.553-0.298 3.339-0.468 5.165-0.468 14.506 0 26.502 10.744 28.464 24.709 2.467 15.768 14.645 64.042 38.527 84.010 27.794 23.881 67.29 34.633 104.338 28.782 40.484-6.327 62.427-24.869 72.155-35.109 9.29-9.764 28.306-47.323 18.066-76.58-14.153-42.423-36.571-59.502-59.977-77.056-9.764-7.315-19.017-14.153-26.807-21.943-18.541-19.017-44.873-48.274-54.6-87.772-9.765-39.021-10.24-80.932-10.24-82.907 0-16.091 13.165-29.733 29.256-29.733h0.476c16.091 0 29.257 13.166 29.257 29.258 0 0.475 0.475 37.046 8.777 69.23 5.852 24.868 24.869 46.335 38.51 59.976 6.327 5.852 13.166 11.228 20.955 16.567 25.344 19.017 60.453 45.349 80.457 105.326 19.493 57.051-12.178 116.041-30.72 135.57-15.104 16.128-48.75 44.398-106.276 53.687z"  horiz-adv-x="1024" />

    
    <glyph glyph-name="tiwenhuida-dengdaishijian" unicode="&#58887;" d="M512 896C230.4 896 0 665.6 0 384s230.4-512 512-512 512 230.4 512 512S793.6 896 512 896z m0-940.8a428.8 428.8 0 1 0 0 857.6 428.8 428.8 0 0 0 0-857.6zM780.8 358.4h-224V569.6c0 25.6-19.2 38.4-44.8 38.4-25.6 0-38.4-19.2-38.4-38.4v-256c0-6.4 0-12.8 6.4-19.2 0-12.8 12.8-19.2 32-19.2h262.4c25.6 0 44.8 19.2 44.8 44.8s-19.2 38.4-38.4 38.4z"  horiz-adv-x="1024" />

    
    <glyph glyph-name="tiwenhuida-geren" unicode="&#58888;" d="M870.4 341.333c-17.067 17.067-42.667 17.067-59.733 0-17.067-17.066-17.067-42.666 0-59.733 81.066-76.8 128-183.467 128-307.2v-17.067h-853.334v17.067c0 140.8 68.267 264.533 170.667 341.333 21.333 12.8 21.333 42.667 8.533 59.734-12.8 17.066-38.4 21.333-59.733 8.533-123.733-93.867-204.8-243.2-204.8-409.6v-98.133c0-4.267 0-4.267 4.267-4.267h1019.733s4.267 0 4.267 4.267v98.133c-4.267 145.067-64 273.067-157.867 366.933zM554.667 324.267c157.65 0.304 285.332 128.175 285.332 285.866 0 157.692-127.682 285.562-285.303 285.866-157.896 0-290.163-128-290.163-285.867s132.267-285.866 290.134-285.866zM554.667 810.667c110.933 0 200.533-89.6 200.533-200.534s-89.6-200.533-200.533-200.533-200.534 89.6-200.534 200.533c-4.266 110.934 89.6 200.534 200.534 200.534z"  horiz-adv-x="1028" />

    
    <glyph glyph-name="tiwenhuida-ruhecaina" unicode="&#58889;" d="M512 896C230.4 896 0 665.6 0 384s230.4-512 512-512 512 230.4 512 512S793.6 896 512 896z m0-940.8a428.8 428.8 0 1 0 0 857.6 428.8 428.8 0 0 0 0-857.6zM716.8 512L454.4 300.8 352 409.6c-19.2 19.2-44.8 19.2-57.6 0-19.2-19.2-19.2-44.8 0-57.6l128-134.4c6.4-6.4 19.2-12.8 32-12.8 6.4 0 19.2 0 25.6 6.4L768 448c19.2 12.8 19.2 38.4 6.4 57.6-12.8 12.8-38.4 19.2-57.6 6.4z"  horiz-adv-x="1024" />

    
    <glyph glyph-name="tiwenhuida-caifuzhiyongchu" unicode="&#58890;" d="M512 896C230.4 896 0 665.6 0 384s230.4-512 512-512 512 230.4 512 512S793.6 896 512 896z m0-940.8a428.8 428.8 0 1 0 0 857.6 428.8 428.8 0 0 0 0-857.6zM672 358.4c25.6 0 44.8 19.2 44.8 38.4s-19.2 32-44.8 32H556.8v44.8L672 588.8c19.2 19.2 19.2 44.8 0 57.6-19.2 19.2-44.8 19.2-57.6 0l-102.4-96-102.4 102.4c-19.2 12.8-44.8 12.8-57.6 0-19.2-19.2-12.8-44.8 0-57.6L467.2 480v-44.8H352c-25.6 0-38.4-12.8-38.4-32s19.2-38.4 38.4-38.4h115.2v-57.6H352c-25.6 0-38.4-12.8-38.4-32s19.2-44.8 38.4-44.8h121.6v-121.6c0-25.6 12.8-44.8 38.4-44.8 25.6 0 44.8 19.2 44.8 44.8V230.4H672c25.6 0 44.8 19.2 44.8 44.8s-19.2 32-44.8 32H556.8v51.2H672z"  horiz-adv-x="1024" />

    
    <glyph glyph-name="tiwenhuida-shanchuquxiao" unicode="&#58891;" d="M614.4 384l381.673 381.673c27.927 27.927 27.927 74.472 0 102.4C968.145 896 921.6 896 893.673 868.073L512 486.4 130.327 877.382c-27.927 27.927-74.472 27.927-102.4 0C0 849.455 0 802.909 27.927 774.982L409.6 393.309 18.618 2.327c-27.927-27.927-27.927-74.472 0-102.4C37.236-118.69 55.855-128 74.473-128s37.236 9.31 55.854 18.618L512 272.291l381.673-381.673c18.618-9.309 37.236-18.618 55.854-18.618s37.237 9.31 55.855 18.618c27.927 27.927 27.927 74.473 0 102.4L614.4 384z"  horiz-adv-x="1026" />

    
    <glyph glyph-name="xihuan-zijizanpx" unicode="&#58892;" d="M859.46 896C755.98 896 658.215 851.43 592.841 778.887 527.468 851.429 429.702 896 326.225 896 142.282 896 0 762.341 0 589.177c0-211.968 201.19-382.275 506.61-644.58L592.843-128l86.232 72.596c305.421 262.306 506.61 432.613 506.61 644.581C1185.684 762.341 1043.402 896 859.46 896z"  horiz-adv-x="1185" />

    
    <glyph glyph-name="tiwenhuida-xunzhaopengyou" unicode="&#58893;" d="M512 896C230.4 896 0 665.6 0 384s230.4-512 512-512 512 230.4 512 512S793.6 896 512 896z m0-940.8a428.8 428.8 0 1 0 0 857.6 428.8 428.8 0 0 0 0-857.6zM691.2 275.2C716.8 313.6 736 364.8 736 416c0 134.4-108.8 249.6-249.6 249.6-134.4 0-249.6-108.8-249.6-249.6 0-134.4 108.8-249.6 249.6-249.6 57.6 0 108.8 19.2 147.2 51.2l76.8-76.8c6.4-6.4 19.2-12.8 32-12.8s19.2 6.4 32 12.8c19.2 19.2 19.2 44.8 0 57.6l-83.2 76.8z m-204.8-25.6C396.8 249.6 320 326.4 320 416c0 89.6 76.8 166.4 166.4 166.4 89.6 0 166.4-76.8 166.4-166.4 0-89.6-76.8-166.4-166.4-166.4z"  horiz-adv-x="1024" />

    
    <glyph glyph-name="zantingpx" unicode="&#58894;" d="M414.822 596.838h-26.419c-14.438 0-26.419-12.288-26.419-27.11v-406.58c0-14.822 11.98-27.11 26.42-27.11h26.418c14.439 0 26.42 12.288 26.42 27.11v406.58c0 14.822-11.981 27.11-26.42 27.11zM512 896c-282.624 0-512-229.3-512-512.18s229.376-511.82 512-511.82 512 228.966 512 511.82-229.376 512.18-512 512.18zM512-92.646c-263.168 0-476.493 213.555-476.493 476.467s213.325 476.467 476.493 476.467 476.493-213.555 476.493-476.467-213.325-476.467-476.493-476.467zM652.672 596.838h-26.42c-14.438 0-26.418-12.288-26.418-27.11v-406.58c0-14.822 11.98-27.11 26.419-27.11h26.419c14.438 0 26.42 12.288 26.42 27.11v406.58c0 14.822-11.982 27.11-26.42 27.11z"  horiz-adv-x="1024" />

    
    <glyph glyph-name="zhongbopx" unicode="&#58895;" d="M766.632 827.048c-155.8 89.326-339.455 89.088-489.743 15.326-6.101-2.979-10.23-9.138-10.23-16.262 0-4.98 2.018-9.488 5.28-12.752 5.445-5.393 13.654-6.587 20.532-3.208 140.082 69 311.022 69.154 456.139-13.995 229.734-131.771 307.626-423.013 174.028-650.647-133.58-227.635-428.030-305.34-658.003-173.568-117.913 67.584-195.89 177.118-225.723 298.632-1.841 8.111-8.989 14.075-17.53 14.075-9.916 0-17.954-8.038-17.954-17.954 0-1.489 0.181-2.935 0.523-4.318 31.991-130.522 115.805-248.657 242.662-321.344 247.073-141.755 563.71-58.163 707.223 186.522 143.53 244.666 59.853 557.72-187.204 699.492zM434.943 201.078l247.568 153.19c6.417 4.020 10.622 11.053 10.622 19.068 0 8.043-4.234 15.097-10.595 19.055l-247.664 152.136c-3.34 2.084-7.396 3.319-11.741 3.319-12.386 0-22.426-10.040-22.426-22.426 0-0.003 0-0.006 0-0.009l-0-305.27c0.018-12.382 10.059-22.412 22.443-22.412 4.366 0 8.44 1.247 11.887 3.403z"  horiz-adv-x="1024" />

    
    <glyph glyph-name="tiwenhuida-xiazhankaisanjiao" unicode="&#58896;" d="M1841.973 877.422c-34.082 34.082-85.206 34.082-119.288 0l-783.888-800.93L154.91 860.382C120.827 894.463 69.704 911.504 35.622 877.42 1.539 843.34-15.502 792.218 18.58 758.136l852.053-852.053C887.673-128 921.756-128 938.797-128c17.041 0 34.082 0 51.123 17.041l852.053 852.052c51.123 51.124 34.082 102.247 0 136.329z"  horiz-adv-x="1877" />

    
    <glyph glyph-name="b" unicode="&#58897;" d="M231.024 9.366v-124.878h437.074V9.366H543.22l124.878 749.268h124.878V883.512H355.902v-124.878H480.78L355.902 9.366z"  horiz-adv-x="1024" />

    
    <glyph glyph-name="b1" unicode="&#58898;" d="M454.503 770.053h492.834c32.856 0 54.76 21.904 54.76 54.76 0 32.855-21.904 54.76-54.76 54.76H454.503c-32.856 0-54.76-21.905-54.76-54.76 0-32.856 27.38-54.76 54.76-54.76z m492.834-186.181H454.503c-32.856 0-54.76-21.904-54.76-54.76s21.904-54.76 54.76-54.76h492.834c32.856 0 54.76 21.905 54.76 54.76s-21.904 54.76-54.76 54.76z m0-290.225H454.503c-32.856 0-54.76-21.904-54.76-54.76 0-32.855 21.904-54.759 54.76-54.759h492.834c32.856 0 54.76 21.904 54.76 54.76 0 27.38-21.904 54.76-54.76 54.76z m0-290.225H454.503c-32.856 0-54.76-21.903-54.76-54.759s21.904-54.76 54.76-54.76h492.834c32.856 0 54.76 21.904 54.76 54.76 0 27.38-21.904 54.76-54.76 54.76zM180.706 846.717h-49.284L21.904 786.48l16.428-49.283 82.139 43.807V545.54H32.856v-49.283h219.037V545.54h-71.187z m-27.38-832.343l38.332 38.332c10.952 10.952 21.903 21.904 27.38 32.855l16.427 32.856c5.476 10.952 5.476 21.904 5.476 38.332 0 16.427-5.476 38.331-10.952 49.283-5.476 16.428-16.428 21.904-21.903 32.856s-21.904 16.428-38.332 21.903c-10.952 5.476-27.38 5.476-43.807 5.476-21.904 0-43.808-5.476-60.236-10.951-16.428-10.952-38.331-21.904-49.283-38.332l27.38-38.332c10.951 10.952 21.903 16.428 32.855 27.38s27.38 10.952 38.332 10.952c10.952 0 21.903 0 27.38-5.476s16.427-5.476 16.427-16.428 16.428-5.476 16.428-10.952 5.476-16.427 5.476-21.903v-27.38c0-10.952-5.476-16.428-10.952-27.38s-10.952-16.428-21.904-27.38l-38.331-38.331-93.091-76.663v-54.76h229.99v54.76H98.566l54.76 49.283z"  horiz-adv-x="1024" />

    
    <glyph glyph-name="b2" unicode="&#58899;" d="M899.7 884.162H189.41c-100.624 0-177.572-76.948-177.572-177.572v-645.18c0-100.624 76.948-177.572 177.572-177.572H899.7c100.624 0 177.572 76.948 177.572 177.572V706.59c0 100.624-76.948 177.572-177.573 177.572zM574.15 765.78h159.815V647.4H574.15V765.78z m-219.005 0H514.96V647.4H355.145V765.78zM130.22 706.59c0 35.514 23.676 59.19 59.19 59.19h106.544V647.4H130.22v59.19z m828.67-639.26c0-35.515-23.676-59.191-59.19-59.191H189.41c-35.514 0-59.19 23.676-59.19 59.19V564.532h828.67v-497.203z m0 580.069H799.075V765.78H899.7c35.515 0 59.191-23.676 59.191-59.19v-59.191zM473.526 120.6l213.087 147.977c17.757 11.838 17.757 35.514 0 47.353L473.526 469.827c-17.757 11.838-47.353 0-47.353-29.596v-301.873c0-17.757 29.596-35.514 47.353-17.757z"  horiz-adv-x="1084" />

    
    <glyph glyph-name="b3" unicode="&#58900;" d="M1080.54 782.92C973.742 896 816.687 927.411 665.914 776.638l-6.282-6.282-408.344-408.344c-62.822-62.822-56.54-157.055 6.283-213.595 62.822-62.822 163.337-56.54 232.441 0L866.945 525.35c18.846 18.846 18.846 43.975 0 62.822l-6.282 6.282c-18.847 18.847-43.976 18.847-62.823 0L427.19 230.086c-25.129-18.847-69.104-31.411-94.233-12.565-25.129 18.847-12.564 69.105 12.564 94.234l427.19 414.625c56.54 56.54 150.774 56.54 213.596 0 62.822-62.822 62.822-163.337 0-219.877L546.552 66.748c-18.846-18.846-43.975-37.693-75.386-50.257s-62.822-18.847-94.233-18.847-62.823 0-100.516 12.565c-31.41 12.564-62.822 31.41-87.95 56.54-31.412 31.41-50.258 62.822-62.823 94.233s-18.846 69.104-18.846 100.515 12.564 62.822 25.128 87.95c12.565 25.13 25.13 50.259 50.258 69.105l376.933 370.65c18.846 18.847 12.564 43.976 0 62.823l-12.565 12.564c-18.846 18.847-43.975 18.847-56.54 0L106.798 487.656c-31.411-25.128-50.258-56.54-69.105-100.515-18.846-37.693-25.129-87.95-31.41-131.926 0-43.976 0-87.951 18.846-138.209 12.564-43.975 43.975-87.95 81.669-125.644s81.668-69.104 131.926-81.669c50.258-12.564 94.233-18.846 138.209-18.846s87.95 12.564 125.644 31.41 75.386 43.976 100.515 69.105l471.166 452.319c94.233 81.669 81.668 257.57 6.282 339.24z"  horiz-adv-x="1150" />

    
    <glyph glyph-name="b4" unicode="&#58901;" d="M341.333 839.111C341.333 873.244 318.578 896 284.444 896H56.89C22.756 896 0 873.244 0 839.111v-227.555c0-34.134 22.756-56.89 56.889-56.89s56.889 22.756 56.889 56.89v102.4L256 571.733c17.067-17.066 51.2-17.066 68.267 0 17.066 17.067 17.066 51.2 0 68.267L182.044 782.222h102.4c34.134 0 56.89 22.756 56.89 56.89z m625.778-625.778c-34.133 0-56.889-22.755-56.889-56.889v-102.4L768 196.267c-17.067 17.066-51.2 17.066-68.267 0-17.066-17.067-17.066-51.2 0-68.267l142.223-142.222h-102.4c-34.134 0-56.89-22.756-56.89-56.89 0-34.132 22.756-56.888 56.89-56.888H967.11c34.133 0 56.889 22.756 56.889 56.889V156.444c0 34.134-28.444 56.89-56.889 56.89z m-642.844-17.066c-17.067 17.066-51.2 17.066-68.267 0L113.778 54.044v102.4c0 34.134-22.756 56.89-56.89 56.89S0 190.577 0 156.443V-71.11C0-105.244 22.756-128 56.889-128h227.555c34.134 0 56.89 22.756 56.89 56.889s-22.756 56.889-56.89 56.889h-102.4L324.267 128c22.755 22.756 22.755 51.2 0 68.267zM967.11 896H739.556c-34.134 0-56.89-22.756-56.89-56.889s22.756-56.889 56.89-56.889h102.4L699.733 640c-17.066-17.067-17.066-51.2 0-68.267 17.067-17.066 51.2-17.066 68.267 0l142.222 142.223v-102.4c0-34.134 22.756-56.89 56.89-56.89S1024 577.423 1024 611.557V839.11C1024 873.244 995.556 896 967.111 896z"  horiz-adv-x="1024" />

    
    <glyph glyph-name="b_" unicode="&#58902;" d="M509.262 58.182c38.332 0 82.14 16.428 109.519 43.807 98.567 98.567 229.99 301.177 229.99 443.551 0 186.182-136.9 323.080-339.509 323.080s-339.508-131.422-339.508-317.604c0-147.85 131.422-350.46 229.99-449.027 32.855-27.38 71.186-43.807 109.518-43.807zM514.738 786.482c147.85 0 251.893-98.568 251.893-229.99 0-109.519-125.947-312.128-208.086-394.267-21.903-21.904-60.235-21.904-82.139 0-93.090 76.663-219.037 279.272-219.037 388.791 0 131.423 104.043 235.465 257.369 235.465zM421.647 534.588c0-48.388 39.227-87.615 87.615-87.615s87.615 39.227 87.615 87.615c0 48.388-39.227 87.615-87.615 87.615-48.388 0-87.615-39.227-87.615-87.615zM788.535 134.845l-43.808-60.235c98.567-10.952 142.375-21.904 142.375-49.284-5.476-38.331-169.754-49.283-372.364-49.283s-366.888 16.427-366.888 49.283c0 32.856 27.38 38.332 131.423 54.76l-43.808 54.759c-125.946-16.428-202.61-38.332-202.61-109.519 0-120.47 366.888-131.422 476.407-131.422s476.406 10.952 476.406 131.422c0 71.187-71.187 93.091-197.133 109.519z"  horiz-adv-x="1024" />

    
    <glyph glyph-name="b5" unicode="&#58903;" d="M1022.578725 156.049202c0 34.086623-22.724416 56.811039-56.81004 56.811039H738.529523c-34.086623 0-56.811039-22.724416-56.811038-56.811039V-71.188961c0-34.085625 22.724416-56.81004 56.811038-56.81004s56.809042 22.724416 56.809042 56.81004v102.257872l142.0256-142.024601c17.042313-17.043312 51.128936-17.043312 68.171249 0 17.043312 17.042313 17.043312 51.128936 0 68.17125L863.510813 99.240161h102.257872c28.405519 0 56.81004 28.404521 56.81004 56.809041z m-56.81004 511.289363h-102.257872l142.024601 142.0256c17.043312 17.042313 17.043312 51.128936 0 68.171249-17.042313 17.043312-51.128936 17.043312-68.171249 0L795.338565 735.510813v102.257872C795.338565 871.85431 772.616147 894.578725 738.529523 894.578725c-34.086623 0-56.811039-22.724416-56.811038-56.81004v-227.239162c0-34.086623 22.724416-56.811039 56.811038-56.811038H965.767687c34.085625 0 56.81004 22.724416 56.81004 56.811038 0 28.404521-22.724416 56.809042-56.81004 56.809042zM0 610.529523c0-34.086623 22.724416-56.811039 56.81004-56.811038h227.239162c34.086623 0 56.811039 22.724416 56.811039 56.811038V837.767687C340.859242 871.85431 318.134827 894.578725 284.048204 894.578725s-56.809042-28.404521-56.809042-56.81004v-102.257872L79.533457 883.216518c-17.042313 17.043312-51.128936 17.043312-68.171249 0-17.043312-17.042313-17.043312-51.128936 0-68.17125l147.704706-147.706703h-102.257872C22.725414 667.338565 0 638.934044 0 610.529523z m284.049202-397.670281H56.811039C22.724416 212.859242 0 190.135825 0 156.049202c0-34.085625 22.724416-56.809042 56.81004-56.809041h102.257873L17.043312-42.785439c-17.043312-17.042313-17.043312-51.128936 0-68.171249 17.042313-17.043312 51.128936-17.043312 68.171249 0l142.0256 142.024601v-102.257873c0-34.085625 22.723417-56.81004 56.809041-56.81004 34.086623 0 56.811039 22.724416 56.811039 56.81004V156.049202c0 34.086623-28.405519 56.811039-56.811039 56.811039z"  horiz-adv-x="1024" />

    
    <glyph glyph-name="b6" unicode="&#58904;" d="M0 397.474C107.79 545.684 195.368 714.105 256 896l80.842-33.684L235.79 640v-768h-80.842V478.316c-40.42-67.369-80.842-128-121.263-175.158C13.474 357.053 0 384 0 397.474zM303.158 532.21l242.526 26.947C538.947 660.21 532.211 768 532.211 889.263h87.578c0-114.526 6.737-222.316 13.474-323.368l384 40.42 6.737-74.104-384-40.422c20.21-154.947 60.632-282.947 101.053-384 40.42-80.842 94.315-128 148.21-134.736 20.21 0 33.684 13.473 40.421 40.42 6.737 20.211 13.474 60.632 20.21 121.264 0 13.474 6.738 26.947 6.738 33.684 26.947-13.474 53.894-20.21 80.842-26.947-6.737-53.895-20.21-107.79-33.685-161.685-13.473-67.368-53.894-101.052-114.526-101.052-80.842 0-154.947 60.631-222.316 175.158-60.631 121.263-94.315 269.473-114.526 431.158l-235.79-33.685-13.473 80.843zM714.105 801.684L768 855.58c74.105-53.895 134.737-101.053 181.895-154.947l-60.632-67.369c-60.631 74.105-121.263 128-175.158 168.421z m424.421-6.737h384v-74.105H1367.58c-20.21-94.316-47.158-175.158-80.842-249.263h202.105v-552.421h-74.105v67.368H1280v-80.842h-74.105V330.105c-20.21-33.684-33.684-60.631-53.895-87.579-13.474 20.21-26.947 40.421-47.158 67.369 87.58 121.263 148.21 256 181.895 404.21h-154.948v80.842zM1280 404.211v-350.316h134.737V404.21H1280z m249.263-208.843h444.632v-74.105h-444.632v74.105z m168.421 518.737l-26.947-303.158h242.526l33.684 343.58h-384V828.631h471.58l-47.159-417.685h114.527c-6.737-134.736-13.474-249.263-20.21-363.79 0-101.052-53.896-148.21-161.685-148.21-40.421 0-87.579-6.736-141.474-6.736 0 40.42-6.737 74.105-13.473 87.578h53.894c40.421 0 74.106-6.736 94.316-6.736 53.895 0 87.58 26.947 87.58 80.842 6.736 87.579 6.736 181.894 6.736 276.21H1576.42l40.421 384h80.842z"  horiz-adv-x="2102" />

    
    <glyph glyph-name="b7" unicode="&#58905;" d="M168.421 889.263h74.105v-208.842h134.737v-67.368H242.526v-181.895l40.421 40.42c26.948-20.21 67.369-60.63 114.527-107.789l-47.158-60.631c-20.21 20.21-53.895 60.631-107.79 121.263v-545.684h-74.105V437.895c-33.684-101.053-74.105-195.369-128-289.684 0 6.736-13.474 26.947-26.947 53.894C6.737 215.58 0 222.315 0 229.053c74.105 114.526 134.737 242.526 161.684 384H13.474V680.42h148.21V889.263zM491.79 343.58l74.106-26.947C512 202.105 451.368 94.316 390.737-13.474c-26.948 13.474-53.895 20.21-74.105 33.685 60.631 94.315 121.263 202.105 175.157 323.368zM384 518.737h646.737v-74.105H747.789v-431.158c0-87.58-40.42-128-128-128h-128c0 6.737 0 13.473-6.736 20.21-6.737 26.948-6.737 47.158-13.474 67.369 26.947 0 67.368-6.737 128-6.737 47.158 0 67.368 13.473 67.368 53.895V444.63H384v74.106z m47.158 309.895h552.42v-74.106h-552.42V828.632z m384-518.737l67.368 40.42c40.421-67.368 87.58-175.157 154.948-316.63 0 6.736 0 0 13.473-20.211l-80.842-26.948c-6.737 6.737-13.473 26.948-26.947 53.895-47.158 114.526-94.316 202.105-128 269.474z m296.42 87.579h478.317v-67.369h-175.158V215.58h168.42v-67.368h-168.42v-154.948c33.684-6.737 74.105-13.474 121.263-13.474 161.684-6.736 363.79-6.736 613.053 0-6.737-20.21-20.21-47.157-26.948-74.105h-363.79c-94.315 0-175.157 0-235.789 6.737-134.737 0-229.052 47.158-289.684 148.21C1212.632 0 1185.684-60.631 1152-128l-53.895 53.895c60.632 87.579 87.58 208.842 94.316 350.316l74.105-13.474c0-40.421-6.737-74.105-13.473-107.79 33.684-60.631 67.368-107.79 101.052-134.736V330.105h-235.79v67.369z m67.37 451.368h363.789V471.58h-363.79V848.842z m67.368-60.631v-94.316h229.052V788.21h-229.052z m0-161.685v-94.315h229.052v94.315h-229.052z m565.895-87.579h67.368v-141.473c0-60.632-6.737-114.527-20.21-161.685 6.736-6.736 20.21-20.21 40.42-33.684 47.158-33.684 107.79-80.842 181.895-141.473l-53.895-53.895C1953.684 74.105 1886.316 128 1832.421 168.42c-40.421-74.105-107.79-134.737-222.316-175.158-6.737 6.737-13.473 13.474-20.21 26.948l-26.948 26.947c175.158 53.895 256 168.42 242.527 343.579v148.21zM1596.63 842.105h518.737v-67.368h-242.526l-20.21-114.526h208.842v-444.632h-67.369V586.105h-289.684v-377.263h-67.368V653.474h148.21L1805.473 768h-208.841V842.105z"  horiz-adv-x="2163" />

    
    <glyph glyph-name="b8" unicode="&#58906;" d="M310.993 258.844h-98.608-7.585l7.585 7.586c-7.585 197.214 60.682 348.918 242.726 439.94L371.674 842.904C128.948 698.785 22.756 516.74 15.17 182.993c0-128.949 7.586-166.874 15.17-174.46C53.097-67.319 128.949-128 212.386-128h98.608c106.192 0 189.63 83.437 189.63 189.63s-83.438 197.214-189.63 197.214z m667.496 0h-83.437c-15.17 204.8 37.926 394.43 273.067 470.282l-68.267 144.118C758.519 751.881 697.837 539.496 682.667 190.578c0-45.511 0-83.437 7.585-113.778 0-30.34 7.585-60.681 22.755-91.022 7.586-7.585 7.586-15.17 7.586-15.17 30.34-53.097 91.022-91.023 159.288-91.023h98.608c106.192 0 189.63 83.437 189.63 189.63s-83.438 189.63-189.63 189.63z"  horiz-adv-x="1184" />

    
    <glyph glyph-name="duihua" unicode="&#58907;" d="M834.954 545.477c-51.2 0-94.523-43.323-94.523-98.462s43.323-98.461 94.523-98.461c55.138 0 94.523 43.323 94.523 98.461s-43.323 98.462-94.523 98.462z m-267.816 0c-51.2 0-94.523-43.323-94.523-98.462s43.323-98.461 94.523-98.461 94.524 43.323 94.524 98.461-43.324 98.462-94.524 98.462z m-283.569 0c-55.138 0-94.523-43.323-94.523-98.462s43.323-98.461 94.523-98.461 94.523 43.323 94.523 98.461c3.939 55.139-39.384 98.462-94.523 98.462z m768-515.939H350.523l-141.785-141.784c-7.876-11.816-23.63-15.754-35.446-15.754-15.754 0-27.569 3.938-35.446 15.754 0 3.938-3.938 3.938-3.938 7.877v3.938s0 3.939-3.939 3.939v3.938c0 3.939 0 3.939-3.938 7.877V29.538H51.2c-27.57 0-51.2 23.631-51.2 55.139V844.8C0 872.37 23.63 896 51.2 896h1000.37c27.568 0 51.2-23.63 51.2-51.2v-760.123c0-31.508-23.632-55.139-51.2-55.139z"  horiz-adv-x="1103" />

    
    <glyph glyph-name="dashezhi" unicode="&#58908;" d="M512 127.092004c-142.120445 0-255.088004 112.967559-255.088004 255.088003S369.879555 637.268011 512 637.268011s255.088004-112.967559 255.088004-255.089004S654.120445 127.093004 512 127.093004z m510.176007 171.273331v167.629345c-32.796872 7.287972-69.23773 14.575943-109.323573 18.219929-10.931957 40.085843-25.5089 76.526701-43.729829 109.323572 25.5099 32.797872 47.373815 61.949758 65.594744 91.103645L814.461819 804.897356c-29.152886-18.219929-58.305772-40.085843-91.103645-61.949758-32.796872 18.219929-69.23773 36.439858-109.322573 43.729829C610.389616 826.76127 603.102644 863.202128 595.814673 896h-167.629346c-7.287972-32.796872-14.575943-69.23773-18.219928-109.323573-40.085843-10.931957-76.526701-25.5089-109.323573-43.729829-32.797872 18.220929-61.949758 40.085843-91.103645 58.306772L92.926637 684.640826c18.219929-29.152886 40.085843-58.305772 61.949758-91.103645-18.219929-32.796872-36.439858-69.23773-43.729829-109.322572C71.061722 480.570623 34.621865 473.281651 1.824993 465.99468v-167.629345c32.796872-7.287972 69.23773-14.576943 109.323573-18.219929 10.931957-40.085843 25.5089-76.526701 43.729829-109.323573-25.5099-32.797872-47.373815-61.949758-61.949758-91.103644L213.181167-40.536342c29.153886 18.219929 58.306772 40.084843 91.103644 65.593744 32.796872-18.219929 69.23773-36.439858 109.323573-43.729829 3.643986-40.084843 10.931957-76.525701 18.219929-109.322573h167.629345c7.287972 32.796872 14.576943 69.23773 18.219929 109.323573 40.085843 10.931957 76.526701 25.5089 109.324573 43.729829 32.796872-25.5099 61.949758-47.373815 91.102644-65.594744l120.255531 120.255531c-18.219929 29.152886-40.084843 58.305772-65.593744 91.103644 18.219929 32.796872 36.440858 69.23773 43.729829 109.322573 36.439858 3.643986 72.881715 10.932957 105.678587 18.220929z"  horiz-adv-x="1024" />

    
    <glyph glyph-name="qiyehuida" unicode="&#58909;" d="M508.587 786.773c-116.054 0-208.214-92.16-208.214-208.213s92.16-208.213 208.214-208.213c116.053 0 208.213 92.16 208.213 208.213 0 112.64-95.573 208.213-208.213 208.213z m0-348.16c-78.507 0-139.947 61.44-139.947 139.947s61.44 139.947 139.947 139.947 139.946-64.854 139.946-139.947-64.853-139.947-139.946-139.947zM300.373 384C163.84 308.907 71.68 158.72 81.92-8.533h68.267V15.36c0 133.12 75.093 252.587 184.32 314.027 20.48 10.24 23.893 37.546 6.826 54.613-10.24 3.413-27.306 6.827-40.96 0zM709.973 387.413c-13.653 6.827-30.72 3.414-40.96-6.826-17.066-17.067-10.24-44.374 10.24-54.614 112.64-61.44 187.734-177.493 187.734-314.026v-23.894h68.266c6.827 174.08-85.333 324.267-225.28 399.36zM628.053 281.6H563.2c-3.413 0-6.827-3.413-6.827-3.413l-40.96-122.88c-3.413-6.827-10.24-6.827-13.653 0l-51.2 122.88c0 3.413-3.413 3.413-6.827 3.413H378.88c-3.413 0-6.827-3.413-6.827-10.24L481.28 49.493c6.827-10.24 17.067-17.066 30.72-17.066s23.893 6.826 30.72 17.066l95.573 221.867c-3.413 6.827-6.826 10.24-10.24 10.24z"  horiz-adv-x="1024" />

    
    <glyph glyph-name="shipin-n" unicode="&#58910;" d="M915.576-128H192.753c-96.377 0-180.706 78.306-180.706 180.706V703.247c0 96.377 78.306 180.706 180.706 180.706h722.823c96.377 0 180.706-78.306 180.706-180.706v-650.541c-6.023-102.4-84.33-180.706-180.706-180.706zM192.753 769.506c-36.141 0-60.235-30.118-60.235-60.235v-656.565c0-36.141 30.117-60.235 60.235-60.235h722.823c36.142 0 60.236 30.117 60.236 60.235V703.247c0 36.141-30.118 60.235-60.236 60.235H192.753z m-102.4-126.494h897.506v-84.33H90.353v84.33z m186.73 144.564h84.329v-204.8h-84.33v204.8z m228.893 6.024h84.33v-204.8h-84.33V793.6z m234.918 0h84.33v-204.8h-84.33V793.6z m240.941-6.024h84.33v-204.8h-84.33v204.8zM680.66 269.553L487.906 137.035c-18.07-12.047-42.165 0-42.165 24.094V426.165c0 24.094 24.094 36.14 42.165 24.094L680.659 317.74c18.07-18.07 18.07-42.165 0-48.188z"  horiz-adv-x="1103" />

    
    <glyph glyph-name="sousuo" unicode="&#58911;" d="M385.662 776.312c-152.935 0-279.272-126.338-279.272-279.273 0-152.935 126.337-279.273 279.272-279.273S664.935 344.104 664.935 497.04c0 152.935-126.338 279.273-279.273 279.273z m598.442-744.728c19.948-19.948 26.597-39.896 26.597-66.493 0-53.195-39.896-93.091-93.09-93.091-26.598 0-46.546 13.299-66.494 26.597L578.494 171.221c-53.195-33.247-119.689-53.195-186.182-53.195-212.78 0-379.013 172.883-379.013 379.013 0 206.13 166.233 372.364 372.363 372.364s372.364-166.234 372.364-372.364c0-66.494-19.948-132.987-53.195-186.182l279.273-279.273z"  horiz-adv-x="1024" />

    
    <glyph glyph-name="tiwenhuida-fangdajing" unicode="&#58912;" d="M992-25.6l-192 192c64 76.8 96 172.8 96 281.6C896 697.6 697.6 896 448 896S0 697.6 0 448s198.4-448 448-448c102.4 0 198.4 38.4 275.2 96l192-192c12.8-12.8 25.6-12.8 38.4-12.8 12.8 0 25.6 6.4 38.4 12.8 19.2 19.2 19.2 51.2 0 70.4zM102.4 448c0 192 153.6 345.6 345.6 345.6S793.6 640 793.6 448 640 102.4 448 102.4 102.4 256 102.4 448z"  horiz-adv-x="1024" />

    
    <glyph glyph-name="xiala" unicode="&#58913;" d="M512-128C228.894-128 0 100.894 0 384S228.894 896 512 896s512-228.894 512-512-228.894-512-512-512z m0 963.765c-246.965 0-451.765-204.8-451.765-451.765S265.035-67.765 512-67.765 963.765 137.035 963.765 384 758.965 835.765 512 835.765zM289.13 486.4L512 251.482l228.894 240.942c6.024 6.023 18.07 12.047 30.118 12.047 24.094 0 42.164-18.071 42.164-48.189 0-12.047-6.023-24.094-12.047-30.117l-259.011-271.06c-6.024-6.023-18.07-12.046-30.118-12.046-12.047 0-24.094 6.023-30.118 12.047L222.871 426.165c-6.024 12.047-12.047 24.094-12.047 30.117 0 24.094 18.07 48.189 42.164 48.189 12.047 0 24.094-6.024 36.141-18.071z"  horiz-adv-x="1024" />

    
    <glyph glyph-name="xiaoshezhi" unicode="&#58914;" d="M511.9955 125.568771c-141.408757 0-258.435729 117.026971-258.435729 258.435729S365.710786 642.440229 511.9955 642.440229 770.431229 530.289214 770.431229 384.0045 653.404257 125.568771 511.9955 125.568771z m511.9955 175.541458v165.788542c-34.1327 4.875957-68.2664 14.628871-107.275057 19.504829-9.752914 39.009657-24.380786 73.142357-43.885614 107.275057 24.380786 34.1337 48.761571 63.389443 63.389443 92.647186L819.1928 808.229771c-29.256743-19.504829-58.513486-39.009657-92.647186-63.389442-34.1327 19.503829-68.2654 34.1317-107.275057 43.884614C614.3946 827.7346 604.642686 866.743257 599.765729 896H429.101229c-9.752914-34.1327-14.628871-68.2664-19.504829-107.275057-39.009657-14.628871-78.018314-29.256743-107.275057-48.761572-34.1337 24.379786-63.389443 48.761571-92.647186 63.389443L92.647186 686.325843c19.503829-29.256743 39.009657-58.513486 63.389443-92.647186-19.504829-29.256743-34.1327-68.2654-48.761572-107.275057-39.009657-4.875957-73.142357-9.751914-107.275057-19.504829V296.235271c34.1327-9.752914 68.2664-14.628871 107.275057-19.504828 9.752914-39.009657 24.380786-73.142357 43.885614-107.275057-24.380786-34.1337-48.761571-63.389443-63.389442-92.647186l121.902928-117.027972c29.256743 19.504829 58.513486 39.009657 92.647186 63.389443 34.1327-19.503829 68.2654-34.1317 107.275057-43.884614 4.875957-39.009657 9.751914-78.018314 19.504829-107.275057H599.764729c4.876957 34.1327 14.628871 68.2664 19.504828 107.275057 39.009657 9.752914 73.142357 24.380786 107.275057 43.885614 34.1337-24.380786 63.389443-43.885614 92.647186-63.389443L936.220771 76.8072c-19.504829 29.256743-39.009657 58.513486-63.389442 92.647186 19.503829 34.1327 34.1317 68.2654 43.884614 107.275057 39.009657 9.751914 73.142357 14.627871 107.275057 24.379786z"  horiz-adv-x="1024" />

    
    <glyph glyph-name="xiesixin" unicode="&#58915;" d="M110.545 733.09v-760.242h760.243v546.91l100.848 100.848v-698.182c0-27.151-23.272-50.424-50.424-50.424H64c-27.152 0-50.424 23.273-50.424 50.424V783.515C13.576 810.667 36.848 833.94 64 833.94h698.182L661.333 733.091H110.545zM866.91 589.577L448 170.666 308.364 310.304l418.909 418.91 139.636-139.637zM273.455 275.394L413.09 135.758l-186.182-46.546 46.546 186.182z m733.09 453.818L901.818 624.485 762.182 764.12 866.909 868.848c19.394 19.394 50.424 19.394 69.818 0l69.818-69.818c19.394-19.394 19.394-50.424 0-69.818z"  horiz-adv-x="1024" />

    
    <glyph glyph-name="xpxtuanduirenwubao-man" unicode="&#58916;" d="M20.687 384a9.5 9.5 0 1 1 982.626 0 9.5 9.5 0 1 1-982.626 0z"  horiz-adv-x="1024" />

    
    <glyph glyph-name="b9" unicode="&#58917;" d="M937.6 166.4c-6.4 121.6-64 204.8-172.8 256 83.2 44.8 128 115.2 128 217.6C880 806.4 752 883.2 528 896H86.4l6.4-1024H560c249.6 0 377.6 96 377.6 294.4z m-416 588.8c121.6-6.4 185.6-44.8 192-128 0-96-64-140.8-198.4-147.2h-256V755.2h262.4z m243.2-582.4c0-108.8-70.4-160-211.2-160h-288v320h268.8c147.2-6.4 217.6-57.6 230.4-160z"  horiz-adv-x="1024" />

    
    <glyph glyph-name="xpxtuanduirenwubao" unicode="&#58918;" d="M1013.497 376.123c0 273.067-225.805 498.872-498.871 498.872-273.067 0-498.872-225.805-498.872-498.872 0-168.04 84.02-315.077 204.8-404.349 15.754-10.502 26.256-21.005 42.01-26.256h5.251c10.503-5.251 26.257-15.754 42.01-21.005 0 0 5.252 0 5.252-5.251 10.502-5.252 26.256-10.503 36.759-15.754 5.251 0 5.251 0 10.502-5.252 10.503-5.25 26.257-5.25 36.76-10.502 5.25 0 10.502 0 10.502-5.251 10.503-5.252 26.256-5.252 36.759-5.252h10.503c15.753 0 36.759-5.251 52.512-5.251 278.318 5.251 504.123 225.805 504.123 504.123zM514.626 790.974V360.37L220.554 87.303c-78.77 73.518-120.78 173.292-120.78 288.82 0 225.805 183.795 414.851 414.852 414.851z"  horiz-adv-x="1030" />

    
    <glyph glyph-name="b10" unicode="&#58919;" d="M899.7 890.08H189.41C88.786 890.08 11.838 813.134 11.838 712.51V61.41c0-100.624 76.948-177.572 177.572-177.572H899.7c100.624 0 177.572 76.948 177.572 177.572V712.51c0 100.624-76.948 177.572-177.573 177.572zM189.41 771.7H899.7c35.514 0 59.19-23.677 59.19-59.191V381.04c-23.676-35.514-100.624-159.815-224.925-142.057-88.786 11.838-136.138 65.11-189.41 124.3-47.353 59.191-106.543 130.22-213.087 130.22h-5.919c-82.867 0-147.977-23.676-195.33-47.353V712.51c0 35.514 23.677 59.19 59.191 59.19zM899.7 2.22H189.41c-35.514 0-59.19 23.676-59.19 59.19V321.85c17.757 17.757 82.867 71.029 201.248 71.029 59.191-5.92 88.786-35.515 136.139-94.706 59.19-65.11 124.3-142.057 254.52-159.815h41.434c82.867 0 147.977 35.515 195.33 76.948V61.41c0-35.514-23.677-59.19-59.192-59.19zM674.774 534.936a1.3 1.3 0 1 1 153.896 0 1.3 1.3 0 1 1-153.896 0z"  horiz-adv-x="1084" />

    
    <glyph glyph-name="b11" unicode="&#58920;" d="M485.364 890.08h532.717c35.514 0 59.19-23.675 59.19-59.19 0-35.514-23.676-59.19-59.19-59.19H485.364c-35.514 0-59.19 23.676-59.19 59.19 0 29.596 23.676 59.19 59.19 59.19z m0-295.953h532.717c35.514 0 59.19-23.676 59.19-59.19 0-35.515-23.676-59.191-59.19-59.191H485.364c-35.514 0-59.19 23.676-59.19 59.19 0 29.596 23.676 59.191 59.19 59.191zM71.03 298.173h947.052c35.514 0 59.19-23.676 59.19-59.19 0-35.515-23.676-59.191-59.19-59.191H71.029c-35.515 0-59.19 23.676-59.19 59.19 0 29.596 23.675 59.191 59.19 59.191z m0-295.953h947.052c35.514 0 59.19-23.677 59.19-59.191 0-35.515-23.676-59.19-59.19-59.19H71.029c-35.515 0-59.19 23.675-59.19 59.19 0 29.595 23.675 59.19 59.19 59.19zM11.839 848.647v-278.196c0-29.596 35.514-47.353 59.19-29.596L254.52 682.913c17.757 17.758 17.757 47.353 0 59.191L71.03 878.243c-23.676 23.676-59.19 5.919-59.19-29.596z"  horiz-adv-x="1084" />

    
    <glyph glyph-name="b12" unicode="&#58921;" d="M956.852 45.464H397.29c-33.574 0-55.957-22.382-55.957-55.956s22.383-55.956 55.957-55.956h559.562c33.574 0 55.957 22.382 55.957 55.956s-22.383 55.956-55.957 55.956zM397.29 716.94h559.562c33.574 0 55.957 22.382 55.957 55.956s-22.383 55.956-55.957 55.956H397.29c-33.574 0-55.957-22.382-55.957-55.956s27.978-55.956 55.957-55.956z m559.562-279.782H397.29c-33.574 0-55.957-22.382-55.957-55.956s22.383-55.956 55.957-55.956h559.562c33.574 0 55.957 22.382 55.957 55.956s-22.383 55.956-55.957 55.956zM11.191 772.896a2 2 0 1 1 223.825 0 2 2 0 1 1-223.825 0z m0-391.694a2 2 0 1 1 223.825 0 2 2 0 1 1-223.825 0z m0-386.098a2 2 0 1 1 223.825 0 2 2 0 1 1-223.825 0z"  horiz-adv-x="1024" />

    
    <glyph glyph-name="biaoqian-px" unicode="&#58922;" d="M734.072 692.434c-49.35 0-92.53-43.181-92.53-92.53 0-49.35 43.18-92.53 92.53-92.53s92.53 43.18 92.53 92.53c0 55.518-43.18 92.53-92.53 92.53zM1005.494 772.627c-6.169 55.518-49.35 104.867-111.036 111.036h-314.603c-30.843 0-61.686-12.338-86.361-37.012l-437.976-450.314c-49.35-49.349-49.35-123.373 0-166.554l302.265-302.265c24.675-24.675 55.518-37.012 86.362-37.012s61.686 12.337 86.361 37.012l444.145 444.145c24.674 24.674 37.012 61.686 37.012 92.53l-6.169 308.434zM931.47 414.843l-450.313-444.143c-12.338-12.338-24.675-18.506-43.181-18.506-12.337 0-30.843 6.168-43.18 18.506l-302.266 302.264c-18.506 24.675-18.506 61.687 6.169 80.193l444.144 444.143c12.338 12.338 24.675 18.506 43.181 18.506h302.266c24.675 0 49.35-24.674 49.35-49.35l6.168-302.264c6.169-18.506 0-37.012-12.337-49.35z"  horiz-adv-x="1024" />

    
    <glyph glyph-name="dianjitoubu-xpx" unicode="&#58923;" d="M2405.665 18.986h-832.919L1420.861-128l-156.784 146.986h-823.12C200.88 18.986 0 214.966 0 459.943 0 700.019 195.98 896 440.957 896h1964.708c240.077 0 440.957-195.98 440.957-440.957-4.9-240.076-200.88-436.057-440.957-436.057z"  horiz-adv-x="2847" />

    
    <glyph glyph-name="dengdaijiejuepx" unicode="&#58924;" d="M716.8 418.133H551.822V662.756c0 22.755-17.066 39.822-39.822 39.822-22.756 0-39.822-17.067-39.822-39.822V378.31c0-22.755 11.378-39.822 28.444-39.822H716.8c17.067 0 28.444 17.067 28.444 39.822 0 17.067-11.377 39.822-28.444 39.822zM517.689 896H506.31C227.556 896 0 668.444 0 389.689v-11.378C0 99.556 227.556-128 506.311-128h11.378C796.444-128 1024 99.556 1024 378.311V389.69C1024 668.444 796.444 896 517.689 896z m438.044-517.689c0-238.933-199.11-438.044-438.044-438.044H506.31c-238.933 0-438.044 199.11-438.044 438.044V389.69c0 238.933 199.11 438.044 438.044 438.044h11.378c238.933 0 438.044-199.11 438.044-438.044v-11.378z"  horiz-adv-x="1024" />

    
    <glyph glyph-name="shanchupx" unicode="&#58925;" d="M708.384 776.767V874.96H364.712v-98.192H21.042v-98.192h1031.013v98.192zM855.67-8.767H708.384v589.15h-98.192v-589.15H462.904v589.15h-98.192v-589.15H217.425v589.15h-98.192v-687.342h834.63V580.384h-98.192z"  horiz-adv-x="1081" />

    
    <glyph glyph-name="shanchupx1" unicode="&#58926;" d="M523.01 879.484h-16.515c-269.764 0-489.979-220.215-489.979-489.979v-11.01c0-269.764 220.215-489.979 489.979-489.979h11.01c269.764 0 489.979 220.215 489.979 489.979V395.01c0 269.763-214.71 484.473-484.473 484.473z m423.915-500.99c0-231.225-192.688-423.913-423.914-423.913h-16.516c-231.226 0-423.914 192.688-423.914 423.914V395.01c0 231.226 192.688 423.914 423.914 423.914h11.01c231.226 0 423.914-192.688 423.914-423.914v-16.516zM726.71 598.71c-16.516 16.516-38.538 16.516-55.054 0L512 439.054 352.344 598.71c-16.516 16.516-38.538 16.516-55.054 0-16.516-16.516-16.516-38.538 0-55.054L456.946 384 297.29 224.344c-16.516-16.516-16.516-38.538 0-55.054 16.516-16.516 38.538-16.516 55.054 0L512 328.946 671.656 169.29c16.516-16.516 38.538-16.516 55.054 0 16.516 16.516 16.516 38.538 0 55.054L567.054 384 726.71 543.656c16.516 16.516 16.516 44.043 0 55.054z"  horiz-adv-x="1030" />

    
    <glyph glyph-name="shezhipx" unicode="&#58927;" d="M1024 303.543v160.914l-153.6 14.629c-7.314 29.257-21.943 58.514-36.571 87.771l95.085 117.029-109.714 109.714-117.029-87.771c-36.571 14.628-65.828 29.257-95.085 36.571l-14.629 153.6h-160.914l-14.629-153.6c-36.571-7.314-65.828-21.943-95.085-36.571l-117.029 95.085-109.714-109.714 95.085-117.029c-14.628-36.571-29.257-65.828-36.571-95.085l-153.6-14.629v-160.914l153.6-14.629c7.314-29.257 21.943-58.514 36.571-87.771l-95.085-117.029 109.714-109.714 117.029 95.086c29.257-14.629 58.514-29.257 87.771-36.572l21.943-160.914h160.914l14.629 153.6c29.257 7.314 58.514 21.943 87.771 36.571l117.029-95.085 109.714 109.714-95.086 117.029c14.629 29.257 29.257 58.514 36.572 87.771l160.914 21.943zM512 215.77c-95.086 0-168.229 73.143-168.229 168.229s73.143 168.229 168.229 168.229c95.086 0 168.229-73.143 168.229-168.229 0-95.086-73.143-168.229-168.229-168.229z"  horiz-adv-x="1024" />

    
    <glyph glyph-name="shuaxinpx" unicode="&#58928;" d="M125.902 434.36c67.147 201.443 226.623 276.984 226.623 276.984 58.754 16.787 117.508 25.18 176.262 16.787 83.934-8.393 167.869-33.574 226.623-100.721l-83.935-83.935 302.164-25.18-41.967 285.377-83.934-83.934c-75.541 75.54-218.23 134.295-293.77 142.688-75.542 16.787-142.69 8.394-243.41-33.574C209.835 786.885 33.573 610.623 16.786 451.148c0-33.574 16.787-58.755 50.36-67.148 25.18-8.393 50.361 16.787 58.755 50.36zM973.639 384c-33.573 8.393-58.754-16.787-67.147-50.36-67.148-201.443-226.623-276.984-226.623-276.984-58.754-25.18-109.115-33.574-167.869-25.18-83.934 8.393-167.869 33.573-226.623 100.72l83.934 83.935-302.163 25.18 41.967-285.377 83.934 83.935c75.541-75.541 218.23-125.902 293.77-142.689 75.542-8.393 142.69-8.393 243.41 33.574S1015.608 140.59 1024 308.46c0 41.967-16.787 67.148-50.36 75.541z"  horiz-adv-x="1041" />

    
    <glyph glyph-name="wangyouduzaizhao" unicode="&#58929;" d="M1048.038-46.272l-211.531 211.53c48.075 72.113 81.728 168.263 81.728 259.606 0 249.99-201.916 451.906-451.906 451.906S14.423 674.854 14.423 424.864s201.915-451.906 451.906-451.906c100.957 0 206.723 43.267 283.643 100.957l19.23 19.23 206.723-206.722c19.23-19.23 48.075-19.23 67.305 0 24.038 19.23 24.038 48.075 4.808 67.305z m-581.71 120.187c-192.3 0-350.948 158.648-350.948 350.949 0 192.3 158.648 350.948 350.949 350.948 192.3 0 350.948-158.648 350.948-350.948 0-192.3-158.648-350.949-350.948-350.949z"  horiz-adv-x="1068" />

    
    <glyph glyph-name="tiwenzhecainawangyoucainapx" unicode="&#58930;" d="M916.078 489.412c0 220.863-180.705 396.549-396.549 396.549S117.961 710.275 117.961 489.41c0-125.49 55.215-235.92 145.568-306.195v-240.941c0-40.157 40.157-70.275 80.314-50.197L514.51-7.529l175.686-105.412c35.137-15.059 80.314 10.039 80.314 50.196V178.196c85.333 75.294 145.568 185.726 145.568 311.216z m-732.862 0c0 180.706 150.588 331.294 331.294 331.294s331.294-150.588 331.294-331.294S695.216 158.118 514.51 158.118 183.216 308.706 183.216 489.412z m190.745-35.137C384 449.255 384 434.196 384 424.157l-15.059-90.353c-5.02-25.098 20.079-45.177 45.177-35.137l85.333 45.176c10.04 5.02 20.078 5.02 30.118 0l85.333-45.176c25.098-10.04 50.196 10.039 45.176 35.137l-15.058 90.353c0 10.04 0 20.078 10.039 30.118l70.274 65.254c20.079 20.079 10.04 50.196-15.058 55.216l-95.373 15.059c-15.059 0-25.098 5.02-30.118 15.059l-40.157 85.333c-10.039 25.098-45.176 25.098-55.215 0l-45.177-85.333c-5.02-10.04-15.059-15.06-25.098-20.079l-95.372-10.039c-25.098-5.02-35.138-35.137-15.06-55.216l65.256-65.254z"  horiz-adv-x="1024" />

    
    <glyph glyph-name="tuijiantuanduipx" unicode="&#58931;" d="M608.41556 817.694l84.33-174.682c12.046-30.118 42.164-48.188 72.282-54.212l192.753-30.118c78.306-12.047 108.423-108.423 54.211-162.635L873.45156 263.53c-24.095-24.094-36.142-54.211-30.118-84.329l30.117-192.753c12.047-78.306-72.282-138.541-138.54-102.4L566.25056-25.6c-30.117 12.047-60.235 12.047-90.353 0l-168.658-90.353c-72.283-36.141-156.612 24.094-138.542 102.4L198.81556 179.2c6.024 30.118-6.024 66.259-30.118 84.33L30.15756 402.07C-30.07944 456.283 6.06156 558.683 84.36756 564.707l192.753 30.118c30.118 6.023 60.235 24.094 72.282 54.211l84.33 174.683c36.14 66.258 138.54 66.258 174.682-6.024z"  horiz-adv-x="1043" />

    
    <glyph glyph-name="weifanguiding-px" unicode="&#58932;" d="M512 640c-22.756 0-39.822-17.067-39.822-39.822v-284.445c0-22.755 17.066-45.51 39.822-45.51 22.756 0 39.822 17.066 39.822 39.821V594.49C551.822 622.933 534.756 640 512 640z m-39.822-472.178a0.7 0.7 0 1 1 79.644 0 0.7 0.7 0 1 1-79.644 0zM517.688 896h-11.377C227.556 896 0 668.444 0 389.689v-11.378C0 99.556 227.556-128 506.311-128h11.378C796.444-128 1024 99.556 1024 378.311V389.69C1024 668.444 796.444 896 517.689 896z m438.045-517.689c0-238.933-199.11-438.044-438.044-438.044H506.31c-238.933 0-438.044 199.11-438.044 438.044V389.69c0 238.933 199.11 438.044 438.044 438.044h11.378c238.933 0 438.044-199.11 438.044-438.044v-11.378z"  horiz-adv-x="1024" />

    
    <glyph glyph-name="zanpx" unicode="&#58933;" d="M1011.12 451.623c-25.762 38.641-57.963 38.641-103.045 45.081h-251.17c-12.88 0-19.32 12.88-19.32 25.761 12.88 64.403 12.88 103.044 19.32 154.566 0 38.642 0 70.843-6.44 109.485 0 0-25.76 103.044-115.924 103.044-77.283 0-128.805-57.963-128.805-135.246v-12.88c-6.44-128.805-103.044-238.29-225.409-264.05-6.44 0-19.32-12.88-19.32-19.321V-102.24c0-12.88 6.44-19.32 19.32-19.32h618.264c32.201 0 51.522 0 77.283 12.88 38.642 19.32 45.082 64.402 45.082 64.402L1030.44 355.02v25.76c0 25.762-6.44 45.083-19.32 70.844z m-64.403-96.604l-96.604-373.535s-6.44-25.76-38.641-32.201H270.49c-12.88 0-19.321 6.44-19.321 19.32V400.102c0 6.44 6.44 19.32 12.88 19.32C418.616 458.063 470.138 631.95 470.138 631.95c12.88 45.081 12.88 115.924 12.88 115.924 0 6.44 12.881 51.522 51.523 51.522 32.201 0 51.522-32.201 51.522-57.962 0 0 12.88-64.403 0-148.126-12.88-25.76-25.761-103.044-25.761-109.484 0 0-6.44-12.88-6.44-19.32 0-25.762 19.32-45.083 45.081-45.083h296.252s25.761 0 38.641-19.32c6.44-6.44 19.321-25.761 12.881-45.082zM51.522 477.384h-12.88C19.32 477.384 0 458.063 0 438.742v-528.1C0-108.68 19.32-128 38.642-128h12.88c19.32 0 38.642 19.32 38.642 38.642v528.1c0 19.32-19.321 38.642-38.642 38.642z"  horiz-adv-x="1031" />

    
    <glyph glyph-name="xwodexingqu" unicode="&#58934;" d="M863.086 896H153.6C65.829 896 0 830.171 0 742.4v-716.8C0-54.857 65.829-128 153.6-128h716.8c80.457 0 153.6 65.829 153.6 153.6V742.4C1016.686 830.171 950.857 896 863.086 896zM285.257 91.429H138.971V237.714h146.286V91.43z m0 219.428H138.971V457.143h146.286v-146.286z m0 219.429H138.971V676.57h146.286v-146.285zM870.4 91.429H431.543V237.714H870.4V91.43z m0 219.428H431.543V457.143H870.4v-146.286z m0 219.429H431.543V676.57H870.4v-146.285z"  horiz-adv-x="1024" />

    
    <glyph glyph-name="gerenzhuye-svg-jiahao" unicode="&#58935;" d="M950.857 457.143H585.143V822.857H438.857v-365.714H73.143v-146.286h365.714v-365.714h146.286V310.857h365.714z"  horiz-adv-x="1024" />

    
    <glyph glyph-name="qq" unicode="&#58936;" d="M912.492124 441.680994c8.821981 13.231971 13.232971 30.874932 13.232971 48.518894 0 30.875932-13.232971 61.751865-35.287923 79.395826v13.231971c0 172.024624-158.790653 308.761325-352.869228 308.761325s-352.869228-132.325711-352.869228-304.349335v-4.41199c-13.232971-13.231971-17.643961-26.464942-17.643961-44.107903v-8.821981c-13.232971-13.232971-22.054952-35.286923-22.054952-52.929884 0-8.822981 0-17.643961 4.41099-26.465942C109.71288 424.037032-13.79085 322.586254 8.263102 150.561631l13.232971-26.464942s48.519894-4.41099 88.216807 74.984836c17.643961-61.752865 57.341875-119.093739 110.271759-149.969672-52.929884-13.232971-92.627797-52.930884-92.627798-83.806817-4.41099-44.108904 79.395826-83.806817 185.256595-92.628797 74.984836-4.40999 141.147691 13.232971 172.023624 39.697913l26.465942 13.232971 44.107903-4.410991c52.930884-22.053952 110.271759-30.875932 110.271759-30.875932 22.054952-4.41099 48.519894-8.821981 74.984836-8.821981 105.861768-4.40999 189.667585 26.464942 194.079576 70.573846 0 30.875932-39.698913 74.984836-101.450778 97.039788 44.108904 35.286923 74.984836 83.805817 83.806816 141.147691 17.642961-57.341875 52.929884-79.395826 52.929884-79.395827 39.697913-4.40999 48.519894 79.395826 48.519894 79.395827 0 110.271759-83.806817 224.954508-105.860768 251.41945z"  horiz-adv-x="1024" />

    
    <glyph glyph-name="gerenzhuye-svg-nv" unicode="&#58937;" d="M768 120.686H555.886v65.828c168.228 21.943 292.571 160.915 292.571 329.143 0 182.857-153.6 336.457-336.457 336.457s-336.457-153.6-336.457-336.457c0-168.228 124.343-307.2 292.571-329.143v-65.828H256c-14.629-7.315-29.257-21.943-29.257-43.886S241.37 40.229 256 32.914h212.114V-76.8c7.315-21.943 21.943-36.571 43.886-36.571s36.571 14.628 43.886 36.571V32.914H768c21.943 0 36.571 21.943 36.571 43.886S789.943 120.686 768 120.686zM263.314 515.657c0 138.972 109.715 248.686 248.686 248.686s248.686-109.714 248.686-248.686S650.97 266.971 512 266.971 263.314 384 263.314 515.657z"  horiz-adv-x="1024" />

    
    <glyph glyph-name="dengninlaida" unicode="&#58938;" d="M925.375 896H146.112C68.185 896 0 832.685 0 749.888v-550.354c0-82.797 63.315-146.112 146.112-146.112h214.297l116.89-155.852c29.222-34.093 82.796-34.093 107.148 0l116.89 155.852h219.167c82.797 0 146.112 63.315 146.112 146.112V749.888C1071.486 832.685 1003.3 896 925.375 896z m48.703-696.466c0-29.222-19.481-48.704-48.703-48.704H657.503L555.225 14.459c-9.741-14.611-29.223-14.611-38.963 0L413.983 150.83h-263c-29.223 0-48.705 19.482-48.705 48.704V749.888c0 29.223 19.482 48.704 48.704 48.704h774.393c29.222 0 48.703-19.481 48.703-48.704v-550.354zM267.872 477.146a1.3 1.3 0 1 1 126.63 0 1.3 1.3 0 1 1-126.63 0zM472.428 477.146a1.3 1.3 0 1 1 126.63 0 1.3 1.3 0 1 1-126.63 0zM676.985 477.146a1.3 1.3 0 1 1 126.63 0 1.3 1.3 0 1 1-126.63 0z"  horiz-adv-x="1072" />

    
    <glyph glyph-name="gerenzhuye-svg-nan" unicode="&#58939;" d="M877.714 793.6H709.486c-29.257 0-51.2-14.629-51.2-43.886s21.943-43.885 43.885-43.885h73.143L658.286 581.486c-131.657 102.4-321.829 95.085-446.172-29.257-131.657-131.658-131.657-343.772 0-475.429 65.829-65.829 153.6-95.086 241.372-95.086 87.771 0 175.543 29.257 241.371 95.086C819.2 201.143 826.514 384 724.114 515.657L848.457 640v-73.143c0-21.943 21.943-43.886 43.886-43.886s43.886 14.629 43.886 43.886V742.4c-7.315 29.257-29.258 51.2-58.515 51.2zM629.03 142.629c-95.086-95.086-256-95.086-351.086 0C234.057 186.514 204.8 252.343 204.8 318.17c0 65.829 29.257 131.658 73.143 175.543s109.714 73.143 175.543 73.143c65.828 0 131.657-29.257 175.543-73.143S702.17 384 702.17 318.171c0-65.828-29.257-131.657-73.142-175.542z"  horiz-adv-x="1024" />

    
    <glyph glyph-name="gerenzhuye-svg-re" unicode="&#58940;" d="M512-54.857c-197.486 0-336.457 160.914-336.457 358.4 0 43.886 0 73.143 14.628 102.4-14.628-29.257 43.886-182.857 190.172-175.543-7.314 131.657-58.514 490.057 109.714 555.886-14.628-175.543 29.257-409.6 219.429-446.172-21.943 153.6 21.943 219.429 51.2 226.743 0-109.714 95.085-182.857 95.085-292.571C848.457 47.543 658.286-54.857 512-54.857z m299.886 738.743c-138.972-29.257-204.8-182.857-168.229-248.686C555.886 566.857 555.886 698.514 555.886 896c-365.715-109.714-256-490.057-248.686-577.829-73.143 65.829-87.771 226.743-87.771 226.743C138.97 501.03 95.086 384 95.086 288.914 95.086 62.171 277.943-128 497.37-128s446.172 109.714 431.543 409.6C921.6 420.571 811.886 501.029 811.886 683.886z"  horiz-adv-x="1024" />

    
    <glyph glyph-name="gerenzhuye-svg-renzheng" unicode="&#58941;" d="M921.6 720.457l-36.571 7.314C687.543 757.03 555.886 874.057 555.886 874.057v7.314C548.57 888.686 526.629 896 512 896c-14.629 0-36.571-7.314-51.2-14.629 0 0-131.657-117.028-329.143-146.285L102.4 720.457c-14.629 0-29.257-14.628-29.257-36.571v-241.372c0-197.485 117.028-365.714 394.971-563.2 14.629 0 29.257-7.314 43.886-7.314s29.257 7.314 43.886 14.629c277.943 197.485 394.971 365.714 394.971 563.2V683.886c0 21.943-14.628 36.571-29.257 36.571zM512-40.229c-292.571 204.8-351.086 336.458-351.086 482.743v204.8C380.343 683.886 512 808.23 512 808.23s131.657-124.343 351.086-160.915v-204.8s21.943-256-351.086-482.743zM643.657 552.23c-21.943 0-36.571-14.629-43.886-29.258L512 325.486l-73.143 182.857-7.314 7.314C424.229 530.286 409.6 537.6 394.97 537.6c-51.2 0-43.885-51.2-43.885-51.2l117.028-285.257s14.629-29.257 43.886-29.257c29.257 0 36.571 14.628 43.886 29.257L687.543 486.4c0 7.314 7.314 14.629 7.314 21.943-7.314 21.943-29.257 43.886-51.2 43.886z"  horiz-adv-x="1024" />

    
    <glyph glyph-name="pinglun" unicode="&#58942;" d="M257.896 418.133a0.7 0.7 0 1 1 106.193 0 0.7 0.7 0 1 1-106.193 0z m219.971 7.586a0.7 0.7 0 1 1 106.192 0 0.7 0.7 0 1 1-106.192 0zM697.837 425.719a0.7 0.7 0 1 1 106.193 0 0.7 0.7 0 1 1-106.193 0z m364.089 22.755C1061.926 691.2 826.786 896 530.963 896S0 691.2 0 448.474c0-204.8 166.874-379.26 394.43-432.355V-128s409.6 189.63 417.185 189.63l15.17 7.585c144.119 83.437 235.14 219.97 235.14 379.26zM788.859 129.896C659.911 61.63 462.696-21.807 462.696-21.807V69.215c-219.97 30.34-394.43 189.63-394.43 379.26 0 212.384 204.8 379.258 462.697 379.258s462.696-174.459 462.696-379.259c0-136.533-75.852-250.311-204.8-318.578z"  horiz-adv-x="1062" />

    
    <glyph glyph-name="ninkenengguanzhudeneirong" unicode="&#58943;" d="M734.56433-116.771952L562.869507-28.604043c-27.842971 13.920986-60.325938 13.920986-88.168908 0l-171.694823-88.167909c-69.606928-37.123962-153.134841 23.201976-139.212856 102.088895l27.841972 204.178788c4.639995 32.482966-4.639995 60.324938-27.841972 83.527914L24.580065 407.595506C-26.464883 463.280448 6.018084 556.089352 84.905002 570.010337l190.257803 27.842972c32.482966 4.639995 55.684942 23.201976 69.605928 51.043947l78.887918 194.897798c37.122962 69.606928 134.571861 69.606928 171.695823 0l88.167908-194.897798c13.919986-27.841971 41.763957-46.403952 69.605928-51.043947l194.897799-27.842972c78.886918-9.27999 111.369885-106.72989 51.044947-162.414831L859.8562 273.023645c-23.201976-23.202976-32.482966-51.044947-27.842971-83.527914l37.123961-204.178788c18.560981-78.886918-64.965933-139.212856-134.57286-102.089895zM135.949949 435.437477l134.572861-129.930866c23.201976-23.202976 32.482966-51.044947 27.841971-83.527913l-27.841971-199.538794c-4.639995-23.201976 18.560981-41.762957 41.762957-27.841971l167.055827 88.167909c27.841971 13.920986 60.324938 13.920986 88.167909 0l167.054827-88.167909c18.561981-9.28099 46.404952 4.639995 41.763956 27.841971l-37.122961 199.538794c-4.639995 32.482966 4.639995 60.324938 27.841971 83.527913l134.572861 129.931866c18.560981 18.560981 9.27999 46.403952-13.921986 46.403952l-185.616808 27.841971c-32.482966 4.639995-55.684942 23.202976-69.605928 51.044947l-88.167908 190.257803c-9.28099 23.201976-41.763957 23.201976-51.044948 0l-88.167908-190.257803c-13.920986-27.841971-41.763957-46.403952-69.605928-51.044947L149.869935 481.842429c-23.201976 0-32.482966-27.842971-13.919986-46.403952z"  horiz-adv-x="1031" />

    
    <glyph glyph-name="weibo" unicode="&#58944;" d="M479.21793-53.393861c-198.919971-9.041999-361.673947 94.939986-361.673947 230.566966 0 135.62798 162.752976 248.649964 361.673947 257.692963 198.919971 9.040999 361.673947-76.855989 361.673947-212.483969 4.520999-135.62798-158.231977-266.733961-361.673947-275.77596z m429.487937 447.570935c-49.729993 9.041999-22.604997 36.167995-22.604997 36.167994s45.209993 76.854989-9.040998 135.62698c-67.81399 72.334989-235.088966-9.040999-235.088966-9.040998-63.292991-22.604997-45.208993 9.040999-36.166995 58.771991 0 58.771991-18.083997 162.752976-189.878972 99.459985C244.129964 656.391035 99.459985 443.907066 99.459985 443.907066-4.519999 303.760087 9.041999 195.257103 9.041999 195.257103c27.124996-239.609965 271.25496-302.901956 465.654931-320.985953 203.44197-18.083997 474.69693 72.334989 556.073919 253.171963 76.855989 185.357973-76.855989 257.691962-122.064982 266.733961zM637.449907 235.945097c-31.645995 90.417987-135.62698 131.106981-239.608965 99.459985-103.979985-36.166995-162.752976-135.62798-135.62698-221.524967 31.645995-90.418987 135.62698-131.106981 239.608964-99.459986 103.980985 31.645995 167.273975 131.105981 135.626981 221.524968zM406.88294 77.71312c-36.166995-9.041999-76.854989 4.519999-85.896987 36.166995-9.041999 31.645995 13.561998 63.292991 54.249992 76.855988 36.167995 9.040999 76.856989-4.520999 85.897987-36.167994 9.041999-31.645995-13.561998-67.81399-54.249992-76.854989z m113.022984 113.022983c-4.519999-13.562998-22.603997-22.604997-36.166995-18.083997-13.562998 4.519999-18.083997 22.604997-13.562998 36.166995 4.520999 13.562998 22.604997 22.604997 36.167995 18.083997 13.561998-9.041999 18.082997-22.604997 13.561998-36.166995z m700.743897 253.170963c0 4.520999 4.519999 9.041999 4.52 13.562998 27.125996 76.855989 13.563998 153.711977-18.082998 226.046967C1152.835831 810.102013 1026.24985 896 886.10087 896c-27.124996 0-54.249992-4.519999-76.854989-9.041999 0 0-4.520999 0-9.041998-4.519999-22.604997-13.563998-31.646995-31.646995-31.646996-54.251992 0-31.645995 22.604997-54.250992 54.250992-54.250992 4.520999 0 9.041999 0 18.083998 4.519999 13.562998 9.042999 40.687994 13.563998 45.209993 13.563998h4.52c94.939986 0 185.357973-54.250992 226.046966-149.189978 18.082997-54.251992 22.603997-108.502984 13.561998-158.232977 0-4.520999-4.519999-13.562998-4.519999-18.083997 0-27.124996 22.603997-49.729993 49.729993-49.729993H1189.002826c13.562998 4.519999 22.604997 9.041999 31.646995 18.083998v9.040998c0-4.519999 0 0 0 0zM895.142869 706.121028c-13.562998 0-31.645995-4.519999-45.208994-4.52-13.562998-4.521999-27.125996-18.083997-27.125996-31.646995 0-18.083997 13.562998-31.646995 31.646996-31.646995 4.519999 0 9.041999 0 13.562998 4.520999 9.041999 0 13.561998 4.520999 22.603997 4.520999 45.209993 0 85.897987-36.166995 85.897987-81.376988 0-9.040999 0-13.561998-4.520999-22.603996v-18.082998c4.519999-18.084997 18.083997-27.125996 31.645995-27.125996 13.562998 0 22.604997 9.040999 31.646995 18.082998 4.519999 13.562998 9.041999 31.646995 9.041999 49.729992 0 72.334989-67.81399 140.149979-149.189978 140.14998z"  horiz-adv-x="1239" />

    
    <glyph glyph-name="leisiwenti" unicode="&#58945;" d="M1002.442 896H75.452C32.338 896 0 863.663 0 820.547v-10.779c0-43.115 32.337-75.452 75.453-75.452h926.99c43.115 0 75.452 32.337 75.452 75.452v10.78c0 43.115-32.337 75.452-75.453 75.452z m0-431.158H75.452C32.338 464.842 0 432.505 0 389.39v-10.778c0-43.116 32.337-75.453 75.453-75.453h926.99c43.115 0 75.452 32.337 75.452 75.453v10.778c0 43.116-32.337 75.453-75.453 75.453z m0-431.158H75.452C32.338 33.684 0 1.347 0-41.768v-10.78C0-95.662 32.337-128 75.453-128h926.99c43.115 0 75.452 32.337 75.452 75.453v10.779c0 43.115-32.337 75.452-75.453 75.452z"  horiz-adv-x="1078" />

    
    <glyph glyph-name="weixin" unicode="&#58946;" d="M813.834 587.459c13.415 0 26.83 0 40.245-4.472C818.306 761.852 634.969 896 424.803 896 192.28 896 0 730.55 0 515.913c0-120.734 62.603-223.581 169.921-299.599l-40.244-134.148 147.563 76.017c53.66-8.943 93.904-22.358 147.563-22.358h40.245c-8.943 31.302-13.415 62.603-13.415 93.904 0 196.751 160.978 357.73 362.201 357.73z m-478.463 22.358c0-4.472-4.471-4.472-8.943-8.944-13.415-8.943-26.83-17.886-44.716-17.886-35.773 0-67.074 31.301-67.074 67.074s31.3 67.074 67.074 67.074c35.773 0 67.074-31.3 67.074-67.074 0-13.415-4.472-26.83-13.415-40.244z m259.354-4.472l-8.943-8.943c-13.415-8.943-26.83-17.887-44.716-17.887-35.773 0-67.075 31.302-67.075 67.075s31.302 67.074 67.075 67.074c35.772 0 67.074-31.302 67.074-67.074 0-13.415-4.472-26.83-13.415-40.245z m608.14-371.144c-4.472 169.921-160.979 304.07-348.786 295.127-187.808-4.472-335.372-147.564-330.9-317.485 4.472-169.922 160.978-304.07 348.786-295.127 35.773 0 71.546 8.943 102.847 17.887l111.79-62.603-31.3 102.847c93.903 53.66 152.034 152.035 147.563 259.354zM804.89 323.633c-8.943-22.358-26.83-35.773-49.188-35.773-31.301 0-53.66 22.358-53.66 53.66 0 31.301 22.359 53.659 53.66 53.659 17.887 0 35.773-8.943 44.716-22.358 4.472-8.943 8.943-17.887 8.943-26.83 0-8.943 0-17.886-4.471-22.358z m205.694-4.471c-8.943-22.359-26.83-35.773-49.188-35.773-31.3 0-53.659 22.358-53.659 53.659s22.358 53.66 53.66 53.66c17.886 0 35.772-8.944 44.716-22.359 4.471-8.943 8.943-17.886 8.943-26.83 0-8.943 0-13.414-4.472-22.357z"  horiz-adv-x="1204" />

    
    <glyph glyph-name="weinintuijian" unicode="&#58947;" d="M879.714856 896H139.660145C65.654174 896 0.9002 831.245025 0.9002 757.240054v-786.309693c0-64.754975 64.754975-111.007957 129.509949-87.880965l323.773874 129.509949c32.377987 13.874995 69.379973 13.874995 106.382958 0l333.02487-134.135948c60.129977-23.126991 129.509949 18.501993 129.509949 87.881966l-4.624998 790.934691c0 78.629969-60.129977 138.759946-138.759946 138.759946z m46.253982-897.317649c0-18.500993-18.501993-27.751989-32.377987-23.125991L560.565981 109.690307c-32.376987 13.875995-69.379973 13.875995-106.382958 0l-328.399872-134.134947c-13.875995-4.625998-32.376987 9.249996-32.376987 23.125991V710.986072c0 50.87898 41.627984 92.506964 92.506963 92.506964h647.548747c50.87898 0 92.506964-41.627984 92.506964-92.506964v-712.303721zM731.703914 470.468166c27.751989 27.751989 13.875995 74.004971-23.126991 78.62997l-83.255967 13.876994c-13.875995 0-27.751989 9.249996-32.376988 23.126991l-37.002985 69.379973c-18.501993 32.376987-64.754975 32.376987-83.255968 0l-37.002985-74.005971c-4.625998-9.249996-18.501993-18.500993-32.377988-23.125991l-83.255967-9.250996c-37.002986-9.249996-50.87898-50.87898-23.126991-78.63097l60.129977-55.503978c9.249996-13.875995 13.875995-27.751989 9.249996-41.627984l-13.875995-83.256967c-4.624998-37.002986 32.377987-64.754975 64.754975-46.252982l74.005971 37.002985c13.875995 4.624998 27.751989 4.624998 41.627984 0l74.005971-37.002985c32.376987-18.501993 74.004971 9.249996 64.754975 46.252982l-13.876995 83.256967c-4.624998 13.875995 4.625998 27.751989 13.876995 41.627984l60.129976 55.503978z m-87.881965 0l-46.252982-46.253982c0-4.624998-4.624998-9.249996-4.624999-13.875994l9.249997-64.754975c4.625998-13.875995-13.875995-23.125991-23.125991-18.499993l-55.504979 27.750989h-13.875994l-55.503978-27.751989c-13.875995-4.624998-27.751989 4.624998-23.126991 18.500993l9.250996 64.754975c0 4.625998-4.624998 9.250996-4.624998 13.875994l-46.253982 46.253982c-13.875995 9.249996-9.249996 23.126991 4.625998 27.751989l64.753975 9.249997 9.250996 9.250996 32.377988 55.504978c4.624998 13.875995 23.125991 13.875995 32.376987 0l23.126991-55.504978c4.624998-4.624998 9.249996-4.624998 13.875994-9.249996l64.754975-9.250997c13.875995-4.624998 18.500993-18.500993 9.249997-27.751989z"  horiz-adv-x="1024" />

    
    <glyph glyph-name="wenti" unicode="&#58948;" d="M512 896C228.43 896 0 667.57 0 384s228.43-512 512-512 512 228.43 512 512S795.57 896 512 896z m0-945.23C271.754-49.23 78.77 143.753 78.77 384S271.753 817.23 512 817.23 945.23 624.247 945.23 384 752.247-49.23 512-49.23z m-47.262 204.8a1 1 0 1 1 78.77 0 1 1 0 1 1-78.77 0z m35.447 78.768c-19.693 0-35.447 15.754-35.447 35.447 0 15.753 11.816 63.015 15.754 74.83 3.939 11.816 11.816 23.631 19.693 31.508 7.877 11.815 19.692 19.692 35.446 35.446 7.877 7.877 39.384 35.446 43.323 43.323 3.938 3.939 7.877 11.816 11.815 15.754 3.939 7.877 15.754 47.262-19.692 82.708-23.63 19.692-47.262 23.63-59.077 23.63-47.262 0-78.77-27.569-86.646-86.646 0 0-11.816-31.507-39.385-35.446-19.692 0-35.446 11.816-39.384 31.508 0 0-7.877 27.57 11.815 66.954 15.754 31.508 39.385 63.015 86.646 78.77 51.2 15.753 98.462 11.814 129.97 0 86.646-35.447 98.46-110.278 98.46-129.97 0-11.816-3.938-47.262-15.753-63.016C618.338 384 571.077 360.37 551.385 324.923c-3.939-7.877-11.816-51.2-11.816-55.138-3.938-23.631-19.692-35.447-39.384-35.447z"  horiz-adv-x="1024" />

    
    <glyph glyph-name="xiao-kongjian" unicode="&#58949;" d="M830.792-89.358l-48.301 280.15c-86.944-24.15-280.151-57.962-478.19-4.83l309.133 227.02s-222.189 24.15-362.264 28.98c-4.83-4.83 231.849 67.623 521.66 4.83L478.19 229.434s173.886-19.32 304.302-28.981l-9.66 48.302 241.509 236.679-333.283 48.302L531.32 838.038 381.585 533.736 48.302 485.434l241.51-236.68-57.963-338.112 299.472 159.396 299.471-159.396z m19.321 289.81H777.66l4.83-14.49c43.472 9.66 67.623 14.49 67.623 14.49z"  horiz-adv-x="1063" />

    
    <glyph glyph-name="xiao-qq" unicode="&#58950;" d="M876.565 424.209c5.362 10.723 10.723 26.807 10.723 48.252 0 32.167-10.723 53.612-32.168 69.696V552.88c0 155.476-144.754 284.146-321.675 284.146S217.131 713.717 217.131 558.241v-5.361c-10.723-10.723-16.084-26.807-16.084-42.89v-5.362c-10.722-10.722-21.445-26.806-21.445-48.251 0-10.723 0-16.084 5.361-26.806-37.528-26.807-144.754-112.587-128.67-268.063l10.723-26.806s42.89-5.362 80.419 69.696c16.083-58.974 53.612-107.225 101.863-134.032-53.612-16.083-85.78-48.25-85.78-75.057 0-42.89 75.058-75.058 166.2-80.419 69.696-5.361 128.67 10.723 155.476 32.168C501.277-47.582 512-42.22 512-42.22h37.529c42.89-21.445 96.502-26.806 96.502-26.806 21.445-5.361 42.89-10.723 64.335-10.723 96.503-5.36 171.56 21.445 171.56 64.335 0 26.807-32.167 69.697-91.14 85.78 37.528 32.168 64.334 75.058 75.057 128.67 16.084-48.25 48.251-69.696 48.251-69.696 48.252-5.36 53.613 69.697 53.613 69.697 5.361 96.502-75.058 203.727-91.142 225.172z"  horiz-adv-x="1024" />

    
    <glyph glyph-name="xiangguanzhishi" unicode="&#58951;" d="M922.063-35.33h-13.9c-13.9 9.267-50.968 41.701-50.968 83.402 0 32.435 27.8 60.236 41.7 69.503 41.702 18.534 69.503 55.601 69.503 106.57v532.85C968.398 835.765 908.163 896 829.394 896H189.973C111.203 896 50.968 831.131 50.968 756.995v-736.724c0-78.769 64.87-148.271 148.272-148.271h727.457c27.8 0 46.335 18.534 46.335 46.335-4.634 27.8-23.168 46.335-50.969 46.335zM143.638 251.946V733.828c0 37.068 32.434 69.502 69.502 69.502h101.937v-222.407c0-27.8 18.534-46.335 46.335-46.335 27.8 0 46.335 18.534 46.335 46.335V798.697h398.48c37.067 0 69.502-32.435 69.502-69.502v-463.349c0-41.701-32.435-69.502-69.503-69.502H264.11c-78.77 4.633-120.471-18.534-120.471-18.534v74.136z m0-231.675c-9.267 46.335 23.167 88.037 69.502 88.037h565.285c-9.267-18.534-13.9-37.068-13.9-60.236 0-32.434 9.267-55.601 23.167-78.769H217.774c-32.435-4.633-64.869 18.534-74.136 50.968z"  horiz-adv-x="1024" />

    
    <glyph glyph-name="xiao-weibo" unicode="&#58952;" d="M477.867 14.223c-176.356-5.69-318.578 79.644-318.578 199.11 0 119.467 142.222 216.178 318.578 227.556 176.355 5.689 318.577-68.267 318.577-187.733-5.688-119.467-147.91-233.245-318.577-238.934z m369.777 386.844c-39.822 5.689-22.755 28.444-22.755 28.444s39.822 68.267-5.689 119.467c-62.578 62.578-204.8-5.69-204.8-5.69-56.889-17.066-45.511 11.379-34.133 51.2 0 51.2-17.067 142.223-164.978 91.023-153.6-51.2-278.756-238.933-278.756-238.933C45.511 327.11 56.89 230.4 56.89 230.4 79.644 19.911 295.822-36.978 460.8-48.356c176.356-11.377 415.289 62.578 483.556 221.867s-56.89 221.867-96.712 227.556zM614.4 264.533c-28.444 79.645-119.467 113.778-210.489 85.334C312.89 321.422 256 230.4 284.444 156.444c28.445-79.644 119.467-113.777 210.49-85.333C585.955 99.556 637.155 184.89 614.4 264.533zM409.6 128c-34.133-11.378-68.267 5.689-73.956 28.444-5.688 28.445 11.378 56.89 45.512 68.267 34.133 11.378 68.266-5.689 73.955-28.444C466.49 167.822 443.733 133.689 409.6 128z m96.711 96.711c-5.689-11.378-17.067-17.067-28.444-11.378-11.378 5.69-17.067 17.067-11.378 34.134 5.689 11.377 17.067 17.066 28.444 11.377C512 247.467 512 236.09 506.311 224.711z m614.4 221.867c0 5.689 5.689 5.689 5.689 11.378 22.756 62.577 11.378 136.533-17.067 199.11-51.2 113.778-159.289 182.045-278.755 182.045-22.756 0-45.511 0-68.267-5.689 0 0-5.689 0-5.689-5.689-17.066-5.689-28.444-22.755-28.444-45.51 0-28.445 22.755-45.512 45.51-45.512h17.068c11.377 5.689 34.133 11.378 39.822 11.378h5.689c85.333 0 164.977-51.2 199.11-130.845 17.067-45.51 22.756-91.022 11.379-136.533v-17.067c0-22.755 22.755-45.51 45.51-45.51h11.378c0 5.688 11.378 11.377 17.067 28.444 0-5.69 0-5.69 0 0 0-5.69 0-5.69 0 0zM836.267 674.133c-11.378 0-28.445 0-39.823-5.689-11.377 0-22.755-17.066-22.755-28.444 0-17.067 11.378-28.444 28.444-28.444h34.134c39.822 0 73.955-28.445 73.955-68.267v-34.133c0-11.378 17.067-22.756 28.445-22.756 11.377 0 22.755 5.689 28.444 17.067v39.822c0 68.267-56.889 130.844-130.844 130.844z"  horiz-adv-x="1195" />

    
    <glyph glyph-name="xiao-weixin" unicode="&#58953;" d="M786.387 556.552h33.944c-28.287 158.41-192.353 277.216-379.05 277.216-209.325 0-379.049-147.094-379.049-339.448 0-107.491 56.575-198.01 152.751-271.558l-39.602-118.806 135.78 67.89c45.259-5.658 79.204-11.316 130.12-11.316h33.946c-5.658 28.288-11.315 56.575-11.315 84.862 0 169.724 141.436 311.16 322.475 311.16zM379.05 562.21s-5.658-5.658-11.315-5.658c-16.973-11.314-33.945-22.63-56.575-22.63-45.26 0-84.862 33.945-84.862 84.863s39.603 84.861 84.862 84.861c50.917 0 84.862-39.602 84.862-84.861 0-22.63-5.657-39.603-16.972-56.575z m214.983 0s-5.657-5.658-11.315-5.658c-16.972-11.314-33.945-22.63-56.574-22.63-45.26 0-84.862 39.603-84.862 84.863s39.602 84.861 84.862 84.861 84.862-39.602 84.862-84.861c0-22.63-5.658-39.603-16.973-56.575z m543.116-316.818c-5.657 152.752-147.094 271.558-311.16 265.9-169.724-5.657-299.845-130.12-294.188-282.872 5.658-152.751 147.094-271.558 311.16-265.9 33.945 0 62.232 5.657 90.52 16.972l96.176-56.575-28.287 90.52c84.862 50.917 135.78 135.778 135.78 231.955zM792.044 318.94c-5.657-22.63-33.945-39.602-56.574-39.602-33.945 0-62.232 28.287-62.232 62.232s28.287 62.232 62.232 62.232c22.63 0 39.602-11.315 50.917-28.287 5.657-11.315 11.315-22.63 11.315-33.945 0-11.315 0-16.972-5.658-22.63z m192.354-5.657c-5.658-22.63-33.945-39.602-56.575-39.602-33.945 0-62.232 28.287-62.232 62.232 0 33.944 28.287 62.232 62.232 62.232 22.63 0 39.602-11.315 50.917-28.288 5.658-11.315 11.315-22.63 11.315-33.944 0-11.315-5.657-16.973-5.657-22.63z"  horiz-adv-x="1189" />

    
    <glyph glyph-name="zuijiadaan" unicode="&#58954;" d="M654.629 614.4c3.657 0 10.971 3.657 14.628 3.657L852.114 742.4c7.315 7.314 14.629 14.629 14.629 25.6V822.857C866.743 863.086 833.829 896 793.6 896H603.429v-219.429c0-21.942-14.629-36.571-36.572-36.571H457.143c-18.286 0-36.572 18.286-36.572 36.571V896H230.4c-40.229 0-73.143-32.914-73.143-73.143V768c0-10.971 3.657-21.943 14.629-25.6l182.857-124.343c3.657-3.657 10.971-3.657 14.628-3.657-157.257-62.171-259.657-223.086-237.714-405.943C153.6 36.571 296.23-102.4 468.114-120.686 698.514-149.943 896 29.257 896 256c0 160.914-98.743 299.886-241.371 358.4zM512-62.171c-171.886 0-310.857 142.628-310.857 314.514 0 171.886 138.971 314.514 310.857 314.514 171.886 0 310.857-142.628 310.857-314.514 0-175.543-138.971-314.514-310.857-314.514z m32.914 482.742l29.257-58.514c3.658-10.971 14.629-18.286 25.6-18.286L665.6 332.8c29.257-3.657 40.229-40.229 18.286-58.514L640 226.743c-7.314-7.314-10.971-18.286-10.971-32.914L640 128c3.657-29.257-25.6-51.2-51.2-36.571L530.286 128c-10.972 3.657-21.943 3.657-32.915 0l-58.514-29.257c-25.6-14.629-54.857 7.314-51.2 36.571l10.972 65.829c3.657 10.971-3.658 21.943-10.972 32.914l-47.543 40.229c-21.943 21.943-10.971 54.857 18.286 58.514l65.829 10.971c10.971 0 21.942 7.315 25.6 18.286l32.914 58.514c10.971 25.6 47.543 25.6 62.171 0z"  horiz-adv-x="1024" />

    
    <glyph glyph-name="xxiangwoqiuzhu" unicode="&#58955;" d="M863.086 896H153.6C65.829 896 0 830.171 0 742.4v-716.8C0-54.857 65.829-128 153.6-128h716.8c80.457 0 153.6 65.829 153.6 153.6V742.4C1016.686 830.171 950.857 896 863.086 896zM577.829 91.429H431.543V237.714h146.286V91.43z m0 226.742H431.543v358.4h146.286v-358.4z"  horiz-adv-x="1024" />

    
    <glyph glyph-name="xgaozhiliang" unicode="&#58956;" d="M863.086 896H153.6C65.829 896 0 830.171 0 742.4v-716.8C0-54.857 65.829-128 153.6-128h716.8c80.457 0 153.6 65.829 153.6 153.6V742.4C1016.686 830.171 950.857 896 863.086 896z m-358.4-797.257c-160.915 0-292.572 58.514-292.572 131.657 0 14.629 7.315 29.257 21.943 43.886 43.886-51.2 146.286-87.772 270.629-87.772 124.343 0 226.743 36.572 270.628 87.772 14.629-14.629 21.943-29.257 21.943-43.886 0-73.143-131.657-131.657-292.571-131.657z m0 160.914c-160.915 0-292.572 58.514-292.572 131.657 0 14.629 7.315 29.257 21.943 43.886 43.886-51.2 146.286-87.771 270.629-87.771 124.343 0 226.743 36.571 270.628 87.771 14.629-14.629 21.943-29.257 21.943-43.886 0-73.143-131.657-131.657-292.571-131.657z m0 153.6c-160.915 0-292.572 58.514-292.572 131.657s138.972 131.657 292.572 131.657 292.571-58.514 292.571-131.657S665.6 413.257 504.686 413.257z"  horiz-adv-x="1024" />

    
    <glyph glyph-name="qqkongjian" unicode="&#58957;" d="M870.4-128l-51.2 307.2c-110.277-15.754-319.015-39.385-527.754-3.938l338.708 248.123s-244.185 35.446-397.785 31.507c0 0 259.939 66.954 578.954 7.877L484.431 226.462s192.984-23.631 330.83-31.508l-7.876 47.261L1075.2 506.092l-366.277 55.139L539.57 896 378.092 557.292l-370.215-51.2 267.815-263.877L212.677-128l326.892 173.292L870.4-128z m23.63 319.015c-23.63 0-51.2 0-78.768 3.939L819.2 179.2c47.262 7.877 74.83 11.815 74.83 11.815z"  horiz-adv-x="1076" />

    
    <glyph glyph-name="dacai" unicode="&#58958;" d="M1042.395 387.066c-6.132 73.58-104.24 441.485-110.371 429.221 0 0-6.132 42.923-42.922 61.318C864.575 889.868 846.18 889.868 809.389 889.868L202.347 896c-12.263 0-18.395-6.132-18.395-18.395v-570.252c0-12.263 6.132-18.395 18.395-18.395 214.611-61.317 226.875-294.323 226.875-294.323C435.353-85.078 484.407-128 564.12-128c159.425 0 134.898 239.138 98.108 367.904-6.132 12.264 6.131 24.527 18.395 24.527h245.27c98.107 6.132 116.502 73.581 116.502 122.635z m-134.898-36.79H607.042c-61.317 0-49.054-67.45-42.922-73.581 18.395-79.713 79.712-300.455-12.264-300.455-55.185 0-49.054 128.766-67.449 183.952 0 0-42.922 141.03-196.215 190.083-6.132 0-18.396 12.264-18.396 18.396V785.629c0 12.263 6.132 18.395 18.396 18.395H815.52c30.659-6.132 36.79-24.527 36.79-30.659l104.24-367.904c6.132-49.054-49.054-55.186-49.054-55.186zM49.054 288.957C18.395 288.958 0 307.353 0 331.88V853.078C0 877.605 18.395 896 42.922 896h6.132C73.58 896 91.976 877.605 91.976 853.078V331.88c-6.132-24.527-24.527-42.922-42.922-42.922z"  horiz-adv-x="1043" />

    
    <glyph glyph-name="dazan" unicode="&#58959;" d="M919.76 497.437H674.491c-12.263 0-24.527 12.264-18.395 24.527C692.886 644.6 717.413 889.868 557.988 889.868 478.275 896 429.222 853.078 423.09 773.365c0 0-6.132-239.137-226.874-294.323-6.132 0-12.264-6.132-12.264-18.395v-570.252c0-12.263 6.132-18.395 18.395-18.395l613.174 6.132c36.79 0 49.054 0 79.713 12.263 36.79 18.395 42.922 61.318 42.922 61.318 0-12.264 98.107 361.772 110.37 429.221-6.13 55.186-24.526 122.635-128.766 116.503z m36.79-134.898l-98.107-374.036s-6.132-24.527-36.79-30.659H288.192c-12.264 0-18.396 6.132-18.396 18.396V393.198c0 12.263 6.132 18.395 18.396 18.395 141.03 55.185 196.215 196.215 196.215 196.215 24.527 55.186 18.395 183.952 67.45 183.952 91.975 0 30.658-220.742 12.263-300.455 0-6.131-12.264-73.58 42.922-73.58h300.455s55.186-6.132 49.054-55.186zM49.055 479.042C18.395 479.042 0 460.647 0 436.12v-521.198C0-109.605 18.395-128 42.922-128h6.132c24.527 0 42.922 18.395 42.922 42.922V436.12c-6.132 24.527-24.527 42.922-42.922 42.922z"  horiz-adv-x="1049" />

    
    <glyph glyph-name="gerenzhongxin-" unicode="&#58960;" d="M533.98435 751.510988c-25.129828 0-50.257656-12.564914-69.104528-37.693743l-75.385485-106.79727c-18.846871-18.845871-43.975699-37.692742-69.103527-37.692742H113.079227c-50.257656 0-87.950399-37.692742-87.950399-87.949399v-188.465711c0-50.257656 37.692742-87.949399 87.949399-87.949399h213.59454v-12.564914l138.207055-144.490012c18.846871-18.846871 37.693742-25.128828 62.822571-25.128829h6.281957c50.256656 0 87.949399 37.692742 87.949398 87.949399V663.560589c6.282957 50.257656-37.692742 87.950399-87.949398 87.950399z m270.133153-43.9757c-18.846871 18.845871-50.257656 18.845871-69.104528-6.281957-18.845871-18.846871-18.845871-50.257656 0-69.104527 6.282957 0 81.669442-75.385485 81.669442-232.439411 0-157.054926-81.669442-270.133153-81.669442-276.416111-18.845871-18.845871-12.563914-50.256656 6.282958-69.103527 6.281957-6.281957 18.845871-12.563914 31.409785-12.563915 12.564914 0 31.411785 6.281957 37.693742 18.845872 6.281957 6.281957 100.514313 138.208055 100.514313 332.954724 6.281957 213.59354-100.514313 307.826896-106.79627 314.107852z m169.618841 175.900798C954.888472 902.281957 923.477687 896 904.630816 877.153129c-18.846871-18.845871-12.563914-50.256656 6.281957-69.103528 0 0 194.747669-163.335883 182.182755-414.623165C1080.532614 135.858196 910.913773-46.323558 904.631816-46.323558c-18.846871-18.846871-18.846871-50.257656 0-69.104528 6.281957-6.281957 18.846871-12.563914 31.410785-12.563914s25.128828 6.281957 31.410786 12.563914c6.281957 6.282957 194.747669 207.311583 213.593539 502.573564C1206.175755 694.971374 986.300258 877.153129 973.735344 883.436086z"  horiz-adv-x="1206" />

    
    <glyph glyph-name="hangjiazhongxin" unicode="&#58961;" d="M286.175 670.175a5.8 5.8 0 1 1 451.65 0 5.8 5.8 0 1 1-451.65 0zM188.837 444.35c-50.616 0-89.552-38.936-89.552-89.552v-393.247c0-50.616 42.83-89.551 89.552-89.551H469.17L274.494 444.35h-85.657z m436.076-132.38l-70.084 77.87c-3.894 3.894-11.68 7.787-15.574 7.787h-50.616c-7.787 0-11.68-3.893-15.574-7.787l-70.084-77.87c-3.894-7.787-7.787-15.575-3.894-23.362l93.445-260.867c3.894-7.787 11.68-15.574 19.468-15.574 7.787 0 19.468 7.787 19.468 15.574l93.445 260.867c7.787 7.787 3.893 15.575 0 23.362z m210.25 132.38h-85.657L550.936-128H831.27c50.616 0 89.551 42.829 89.551 89.551V354.798c3.894 50.616-35.042 89.552-85.658 89.552z"  horiz-adv-x="1024" />

    
    <glyph glyph-name="jinbi-px" unicode="&#58962;" d="M30.34 660.86a6.5 3 0 1 1 986.075 0 6.5 3 0 1 1-986.074 0z m493.038-326.164c-212.385 0-386.845 60.682-462.697 144.119-22.755-30.34-30.34-53.096-30.34-83.437 0-121.363 219.97-227.556 493.037-227.556s493.037 98.608 493.037 227.556c0 30.34-15.17 53.096-30.34 83.437-75.853-83.437-250.312-144.119-462.697-144.119z m0-273.066c-212.385 0-386.845 60.681-462.697 144.118-22.755-22.755-30.34-53.096-30.34-83.437 0-121.363 219.97-227.555 493.037-227.555s493.037 98.607 493.037 227.555c0 30.34-15.17 53.096-30.34 83.437-75.853-83.437-250.312-144.118-462.697-144.118z"  horiz-adv-x="1032" />

    
    <glyph glyph-name="jiarutuandui-px" unicode="&#58963;" d="M1460.994-121.478c0 221.758-156.535 410.905-365.249 456.56 71.745 39.135 117.401 110.88 117.401 195.67 0 123.923-97.834 221.758-221.757 221.758-123.924 0-221.758-97.835-221.758-221.758 0-84.79 45.656-156.535 117.4-195.67-13.044-6.521-32.61-6.521-45.655-13.044-65.223 78.268-156.535 136.968-260.892 156.535 71.745 39.134 117.401 110.88 117.401 195.669C710.93 798.166 613.095 896 489.172 896S267.414 798.166 267.414 674.242c0-84.79 45.656-156.535 117.401-195.669-208.713-45.656-365.248-234.802-365.248-456.56h528.306c-13.045-45.656-26.09-97.835-26.09-150.013h939.21z"  horiz-adv-x="1481" />

    
    <glyph glyph-name="wodewendayijiejuepx" unicode="&#58964;" d="M261.953 562.605L15.876 332.403 476.279-128l793.799 793.798L1039.876 896 492.155 332.403z"  horiz-adv-x="1271" />

    
    <glyph glyph-name="renwuliebiao" unicode="&#58965;" d="M513.903 705.665c-34.26 0-64.713 30.454-64.713 64.714s30.453 64.714 64.713 64.714c38.067 0 64.714-30.454 64.714-64.714 0-41.873-30.453-64.714-64.714-64.714zM692.818 804.64c-19.034 0-30.454 15.227-30.454 30.454 0 30.453-26.647 57.1-60.907 57.1H422.543C388.283 896 361.636 869.353 361.636 838.9c0-19.034-15.227-30.454-30.454-30.454h-22.84c-19.033 0-30.454-15.227-30.454-30.453v-91.361c0-19.033 15.227-30.454 30.454-30.454h403.51c19.033 0 30.453 15.227 30.453 30.454v91.36c0 19.034-15.227 30.454-30.454 30.454l-19.033-3.807zM826.052 412.55L487.257 16.654c-7.614-11.42-30.454-7.613-41.874 3.807L216.98 206.989c-3.806 3.807-7.613 11.42 0 15.227l41.874 49.487c3.807 3.806 11.42 3.806 15.227 0l178.914-144.655c7.614-3.806 15.227-3.806 22.84 3.807l281.696 342.602c3.806 7.614 11.42 7.614 15.226 3.807l53.294-45.68c7.613-3.807 7.613-7.614 0-19.034z m0 323.569v-133.234c0-19.034-15.227-30.454-30.453-30.454H228.4c-19.033 0-30.453 15.227-30.453 30.454V736.119c0 19.033-15.227 30.453-30.454 30.453h-19.033c-53.294 3.807-72.327-30.453-72.327-72.327v-742.304c0-34.26 34.26-79.941 79.94-79.941h711.852c38.067 0 79.94 41.874 79.94 79.94V698.053c0 34.26-26.647 68.52-68.52 68.52h-19.034c-19.033 3.807-34.26-11.42-34.26-30.453z"  horiz-adv-x="1024" />

    
    <glyph glyph-name="zi-qq" unicode="&#58966;" d="M757.76 46.08c51.2-40.96 102.4-71.68 153.6-92.16L880.64-128c-71.68 20.48-133.12 61.44-204.8 112.64-71.68-40.96-143.36-61.44-225.28-61.44-81.92 0-163.84 20.48-235.52 61.44C143.36 25.6 92.16 87.04 51.2 158.72S0 322.56 0 414.72 20.48 588.8 51.2 660.48 143.36 793.6 215.04 834.56C286.72 875.52 358.4 896 450.56 896c81.92 0 163.84-20.48 235.52-61.44 71.68-40.96 122.88-102.4 163.84-174.08 30.72-71.68 40.96-153.6 40.96-245.76 0-81.92-10.24-143.36-30.72-204.8-20.48-71.68-61.44-122.88-102.4-163.84z m-276.48 153.6c71.68-20.48 133.12-51.2 174.08-92.16C727.04 179.2 768 281.6 768 414.72c0 71.68-10.24 143.36-40.96 194.56-20.48 61.44-61.44 102.4-112.64 133.12S512 793.6 450.56 793.6c-92.16 0-174.08-40.96-235.52-102.4-61.44-61.44-92.16-153.6-92.16-276.48 0-122.88 30.72-215.04 92.16-276.48 61.44-61.44 133.12-102.4 235.52-102.4 40.96 0 81.92 10.24 122.88 20.48-40.96 30.72-81.92 40.96-122.88 51.2l30.72 92.16z m1290.24-153.6c61.44-40.96 112.64-71.68 163.84-81.92L1894.4-128c-71.68 20.48-133.12 61.44-204.8 112.64-71.68-40.96-143.36-61.44-225.28-61.44-81.92 0-163.84 20.48-235.52 61.44-71.68 40.96-122.88 102.4-163.84 174.08-20.48 71.68-40.96 163.84-40.96 256s20.48 174.08 51.2 256c40.96 71.68 92.16 133.12 163.84 174.08C1310.72 875.52 1382.4 896 1474.56 896c81.92 0 163.84-20.48 235.52-61.44 71.68-40.96 122.88-102.4 163.84-174.08 40.96-71.68 51.2-153.6 51.2-245.76 0-81.92-10.24-143.36-30.72-204.8-30.72-71.68-71.68-122.88-122.88-163.84z m-266.24 153.6c71.68-20.48 133.12-51.2 174.08-92.16C1751.04 179.2 1792 281.6 1792 414.72c0 71.68-10.24 143.36-40.96 194.56-30.72 61.44-61.44 102.4-112.64 133.12s-102.4 51.2-163.84 51.2c-92.16 0-174.08-30.72-225.28-92.16-61.44-61.44-92.16-153.6-92.16-286.72 0-122.88 30.72-215.04 92.16-276.48 61.44-61.44 133.12-102.4 235.52-102.4 40.96 0 81.92 10.24 122.88 20.48-40.96 20.48-81.92 40.96-122.88 51.2l20.48 92.16z"  horiz-adv-x="1936" />

    
    <glyph glyph-name="wodexunzhang-px" unicode="&#58967;" d="M509.36 885.443C234.888 885.443 7.919 658.474 7.919 384s226.969-501.443 501.443-501.443S1010.804 109.526 1010.804 384c0 279.753-221.69 501.443-501.443 501.443z m0-84.453c232.248 0 416.99-184.743 416.99-416.99 0-95.01-31.67-184.742-84.453-253.36-63.34 84.453-158.35 142.515-263.918 163.628C646.598 320.66 694.103 384 694.103 463.175c0 100.289-79.175 179.464-179.464 179.464s-179.464-84.453-179.464-184.742c0-73.897 47.505-137.237 110.846-163.629-110.846-15.835-205.856-73.897-269.196-158.35C124.04 204.536 92.37 294.268 92.37 384c0 232.247 190.02 416.99 416.99 416.99z"  horiz-adv-x="1024" />

    
    <glyph glyph-name="zi-qqkongjian" unicode="&#58968;" d="M411.504 533.333c25.6-17.066 46.933-29.866 68.267-34.133l-17.067-34.133c-29.867 8.533-55.467 25.6-85.333 46.933-25.6-21.333-59.734-29.867-93.867-29.867s-68.267 8.534-98.133 25.6c-29.867 17.067-51.2 42.667-68.267 72.534s-21.333 64-21.333 102.4c0 38.4 8.533 72.533 21.333 106.666s42.667 55.467 72.533 72.534c29.867 17.066 59.734 25.6 98.134 25.6 34.133 0 68.266-8.534 98.133-25.6s51.2-42.667 68.267-72.534c17.066-29.866 21.333-64 21.333-102.4 0-34.133-4.267-59.733-12.8-85.333-17.067-29.867-29.867-51.2-51.2-68.267z m-115.2 64c29.867-8.533 55.467-21.333 72.533-38.4 34.134 29.867 46.934 72.534 46.934 128 0 29.867-4.267 55.467-12.8 81.067-12.8 21.333-29.867 42.667-46.934 55.467-21.333 12.8-42.666 21.333-68.266 21.333-42.667-4.267-72.534-17.067-98.134-42.667-25.6-25.6-38.4-64-38.4-119.466 0-51.2 12.8-89.6 38.4-115.2 25.6-25.6 55.467-42.667 98.134-42.667 17.066 0 34.133 4.267 51.2 8.533-17.067 12.8-34.134 21.334-51.2 25.6l8.533 38.4z m541.867-64c25.6-17.066 46.933-29.866 68.266-34.133l-17.066-34.133c-29.867 8.533-55.467 25.6-85.334 46.933-29.866-17.067-59.733-25.6-93.866-25.6-34.134 0-68.267 8.533-98.134 25.6-29.866 17.067-51.2 42.667-68.266 72.533s-21.334 59.734-21.334 98.134 8.534 72.533 21.334 106.666 38.4 55.467 68.266 72.534c29.867 17.066 59.734 25.6 98.134 25.6 34.133 0 68.266-8.534 98.133-25.6s51.2-42.667 68.267-72.534c17.066-29.866 21.333-64 21.333-102.4 0-34.133-4.267-59.733-12.8-85.333-12.8-29.867-25.6-51.2-46.933-68.267z m-115.2 64c29.866-8.533 55.466-21.333 72.533-38.4 29.867 25.6 46.933 68.267 46.933 123.734 0 29.866-4.266 59.733-17.066 81.066-12.8 25.6-25.6 42.667-46.934 55.467-21.333 12.8-42.666 21.333-68.266 21.333-38.4 0-72.534-12.8-93.867-38.4-25.6-25.6-38.4-64-38.4-119.466 0-51.2 12.8-89.6 38.4-115.2 25.6-25.6 55.467-42.667 98.133-42.667 17.067 0 34.134 4.267 51.2 8.533-17.066 8.534-34.133 17.067-51.2 21.334l8.534 42.666z m-524.8-362.666l29.866-29.867c-59.733-46.933-119.466-85.333-179.2-123.733-8.533 12.8-17.066 21.333-25.6 34.133 59.734 34.133 119.467 72.533 174.934 119.467zM87.237 102.4h349.867V64h-153.6v-128h204.8v-34.133H36.037V-64h204.8V64h-153.6v38.4z m145.067 251.733l38.4 8.534c0-4.267 4.267-8.534 4.267-12.8 8.533-21.334 17.066-38.4 17.066-46.934l-21.333-4.266h213.333v-102.4h-38.4v64h-371.2v-64h-38.4v102.4h217.6c-4.266 8.533-8.533 25.6-21.333 55.466 0-4.266 0 0 0 0z m89.6-119.466c64-38.4 123.733-76.8 179.2-115.2l-25.6-34.134C420.037 128 364.571 166.4 300.571 204.8l21.333 29.867z m238.933 29.866h38.4v-384h-38.4v384z m29.867 72.534l29.867 25.6 68.266-68.267-34.133-29.867c-25.6 29.867-51.2 55.467-64 72.534zM676.037 230.4h209.067v-251.733H676.037V230.4z m34.134-34.133v-72.534h140.8v72.534h-140.8z m0-106.667v-72.533h140.8V89.6h-140.8z m8.533 204.8v38.4h285.867v-375.467c4.266-51.2-21.334-76.8-72.534-76.8h-76.8c0 8.534-4.266 21.334-4.266 42.667h76.8c25.6-4.267 38.4 8.533 38.4 38.4V294.4H718.704z"  horiz-adv-x="1024" />

    
    <glyph glyph-name="zi-hangjiazhongxin" unicode="&#58969;" d="M48.188 614.902c48.188 40.157 92.361 92.36 128.502 164.643l32.126-20.078c-16.063-28.11-32.126-52.204-48.189-76.298v-240.942h-40.156V634.98c-16.063-20.078-36.142-40.156-56.22-56.22-4.016 12.048-12.047 24.095-16.063 36.142z m4.016 144.565c48.188 36.14 88.345 80.313 116.455 132.517l32.125-20.078c-36.14-56.22-80.313-104.408-132.517-144.565-4.016 8.032-12.047 20.079-16.063 32.126zM212.83 719.31h289.13v-36.141h-84.33v-180.706c0-36.141-20.078-56.22-56.22-56.22h-80.313c0 12.047-4.016 24.094-8.031 40.157 24.094-4.016 48.188-4.016 72.282-4.016 20.078 0 32.126 12.047 32.126 32.126V683.169H216.847v36.14z m28.11 136.533h236.926v-36.141H240.94V855.843z m285.114-373.459c92.36 28.11 164.643 72.283 220.863 132.518-4.016 8.031-8.032 16.063-16.063 24.094-44.173-48.188-108.424-84.33-188.737-108.423-4.016 12.047-12.047 20.078-16.063 32.125 80.314 20.078 140.549 56.22 184.721 104.408-4.015 4.016-12.047 8.031-16.062 16.063-40.157-28.11-88.345-52.204-148.58-72.283-4.016 12.047-12.048 20.079-20.08 32.126 72.283 16.063 132.519 44.172 176.691 80.313H586.29v32.126h329.286v-32.126H750.933l-24.094-24.094c24.094-20.078 44.173-40.156 56.22-64.25 48.188 24.094 92.36 48.188 128.502 72.282l20.078-28.11c-24.094-16.063-52.204-28.11-80.314-44.173 20.079-60.235 64.251-100.392 124.487-124.486-12.047-12.047-20.079-24.094-28.11-36.141-60.235 32.125-104.408 80.314-132.518 144.565-8.031-4.016-16.062-8.032-28.11-12.047 16.063-64.251 16.063-112.44-8.03-140.55-12.048-12.046-32.126-20.078-64.252-20.078h-56.22c0 12.047-4.015 24.094-8.03 36.141 24.093-4.015 44.172-4.015 64.25-4.015 32.126 0 48.188 16.062 48.188 60.235 0 12.047-4.015 28.11-4.015 40.157-52.204-52.204-124.487-96.377-216.847-124.486-4.016 8.03-12.047 20.078-16.063 28.11z m8.031 349.365h208.816c-8.031 12.047-20.078 28.11-32.126 44.173L742.902 896c12.047-16.063 28.11-32.125 36.141-48.188L754.95 831.749h196.769v-80.314h-36.142V799.624H570.227v-44.173h-36.14V831.749zM80.314 225.38h176.69V325.773h40.157V225.38h176.69v-208.815H437.71v24.094H297.16V-128h-40.156V40.659h-140.55v-24.094h-36.14V225.38z m36.14-148.58h140.55V193.255h-140.55V76.8zM437.71 193.255H297.16V76.8h140.55V193.255z m132.517-4.016l36.142-12.047c-16.063-64.25-32.126-128.502-52.204-188.737l-36.141 16.063c20.078 56.22 36.14 116.455 52.203 184.721z m64.251 48.188h36.142v-269.05c0-28.11 12.047-40.157 36.14-40.157H811.17c28.11 0 40.156 12.047 44.172 32.125 4.016 20.079 8.032 44.173 8.032 68.267 12.047-4.016 24.094-12.047 40.156-16.063-4.015-32.125-8.031-56.22-12.047-72.282-8.031-36.142-32.125-52.204-72.282-52.204H702.745c-44.172 0-64.25 24.094-64.25 68.266V237.427z m100.393 92.361c28.11-48.188 52.204-92.36 72.282-132.517-16.063-8.032-28.11-12.047-36.141-20.079-20.079 48.188-44.173 92.36-68.267 132.518l32.126 20.078z m160.627-128.502c24.094-48.188 52.204-104.408 80.314-168.659L939.67 12.55c-24.095 60.235-48.189 116.455-76.298 168.659l32.125 20.078z"  horiz-adv-x="1024" />

    
    <glyph glyph-name="zi-renwuliebiao" unicode="&#58970;" d="M46.9 669.313c46.902 62.534 85.985 136.794 113.344 218.87l35.176-11.725c-11.725-39.084-27.359-70.351-42.993-101.618v-336.122h-35.175V708.397c-15.634-27.359-35.176-54.718-54.718-78.168-3.908 11.725-7.816 23.45-15.633 39.084z m152.428-168.061h132.886v144.61H191.51v35.176h140.703V813.924c-39.084-3.909-78.168-3.909-117.252-7.817 0 11.725-3.909 23.45-7.817 35.175 101.618 3.909 195.42 11.726 273.588 19.542l7.817-35.175c-35.176-3.909-74.26-7.817-117.252-11.725V673.22h132.885v-35.175H371.298v-144.61h128.977v-27.36H199.328v35.176zM652.702 896l35.176-15.634c-7.817-11.725-15.634-23.45-23.45-31.267h246.228v-31.267c-27.358-35.176-66.442-66.443-117.251-89.893 50.809-19.542 113.343-31.267 183.694-35.176-11.725-15.633-19.542-27.358-27.359-39.084-78.167 11.726-144.61 27.36-199.328 54.718-62.534-27.359-132.885-46.9-218.87-62.534-3.908 7.816-11.725 19.542-19.542 31.267 78.168 11.725 144.61 27.359 199.328 50.809-35.175 19.542-62.534 46.9-82.076 74.26-23.45-27.36-50.81-54.718-78.168-78.168-7.817 11.725-15.634 19.542-23.45 23.45C582.35 794.38 625.344 841.282 652.702 896z m-97.71-269.68h132.886c3.908 15.634 3.908 31.268 3.908 50.81h35.176c-3.909-19.542-3.909-35.176-7.817-50.81H902.84c-3.909-54.717-7.817-93.8-7.817-113.343-3.908-42.992-31.267-66.443-78.168-66.443h-82.076c0 11.726-3.909 23.45-7.817 39.084 35.175-3.908 62.534-3.908 85.985-3.908 27.358 0 39.084 15.634 42.992 39.084 11.725 23.45 15.634 46.9 15.634 74.26H719.145c-15.634-74.26-74.26-125.07-171.97-160.245-7.816 11.725-15.633 19.542-23.45 31.267 85.985 27.36 140.702 70.351 156.336 128.977H554.992v31.268zM863.756 817.833H660.519c23.45-31.267 54.718-54.717 93.802-74.26 42.992 19.543 78.168 46.901 109.435 74.26zM128.977 79.145l23.45 27.359c23.45-19.542 42.993-39.084 62.535-54.718 19.542 35.176 35.175 74.26 42.992 113.344H152.427c-23.45-54.718-54.717-105.527-89.893-148.52-7.816 15.634-11.725 27.36-19.542 35.176 50.81 62.535 85.985 136.794 109.435 218.87H62.534v31.268H320.49v-31.268H191.51c-7.816-23.45-15.633-50.809-23.45-74.26h128.977v-35.175C273.588 36.153 207.145-61.557 97.71-128c-7.817 7.817-15.634 19.542-27.359 27.359 50.81 35.175 93.802 74.26 125.069 117.252-19.542 19.542-39.084 39.084-66.443 62.534z m246.23-89.893H340.03V270.656h35.175v-281.404z m66.442 332.214h35.175V-57.65c0-39.084-15.633-58.626-50.809-58.626h-74.26c0 15.634-3.908 27.359-7.816 42.993 31.267-3.909 50.81-7.817 66.443-7.817 19.542 0 27.358 11.725 27.358 31.267V321.466z m472.916-246.23l23.45-31.267-101.618-50.809c35.176-31.267 82.076-46.9 136.794-58.626-11.725-11.725-19.542-27.358-27.359-35.175-97.71 23.45-168.061 85.985-211.053 179.786-15.634-19.542-35.176-39.084-54.718-54.718v-97.71c39.084 11.726 78.168 27.36 113.344 42.993v-39.084c-35.176-11.725-74.26-27.359-113.344-42.992l-23.45-11.726-23.45 35.176c7.816 7.817 11.724 15.634 11.724 27.359v58.626c-31.267-23.45-66.442-46.901-109.435-62.535-7.816 11.726-15.633 19.542-23.45 31.268 78.168 31.267 140.702 74.26 187.603 128.977H519.817v31.267h203.236v46.9h-168.06v31.268h171.969v42.992H535.45v31.267h191.512v50.81h35.175v-50.81H953.65v-31.267H762.137v-42.992h171.97v-31.267h-171.97v-46.901h203.237v-31.267H762.137c11.726-31.268 31.268-54.718 50.81-78.168 31.267 15.633 66.442 35.175 101.618 58.626z"  horiz-adv-x="1024" />

    
    <glyph glyph-name="zi-zhiding" unicode="&#58971;" d="M946.85 468.164l603.177-568.11c35.069-35.068 91.178-35.068 126.247 0l77.15 77.151c35.07 35.069 35.07 91.179 0 126.247L946.85 867.945c-35.068 35.069-91.178 35.069-126.246 0L28.055 110.465c-35.069-35.068-35.069-91.177 0-126.246l77.15-77.15c35.069-35.069 91.179-35.069 126.247 0l596.164 568.11c28.055 28.054 84.165 28.054 119.233-7.015z"  horiz-adv-x="1782" />

    
    </font>
</defs>
</svg>
